ML
     
  Уважаемый Гость!
Вы можете поддержать проект и зарегистрироваться у наших партнеров - онлайн-стратегия MyLands. При регистрации в игре Вы получите код, который сможете активировать после регистрации на pirat.ca и получить 1000 дублонов.

Ваш код:
fcd618d94adc1456bccbde5047c9cd0930e4ae4d
 
     

Питер Пэн 2: Возвращение в Нетландию / Return to Never Land (Робин Бадд, Донован Кук / Robin Budd, Donovan Cook) [2002 г., фэнтези, приключения, семейный, мультфильм, HDTVRip] Dub (Лицензия)

Ответить на тему
 
Автор
Сообщение

Пост 11-Фев-2012 09:26

[Q] 

ara1205

Питер Пэн 2: Возвращение в Нетландию / Return to Never Land
Год выпуска: 2002
Мировая премьера: 10 февраля 2002
Российская премьера: 31 октября 2002
Производство: США, Канада, Австралия
Жанр: фэнтези, приключения, семейный, мультфильм
Продолжительность: 01:12:29
Перевод: Профессиональный (полное дублирование) [Лицензия]
Субтитры: отсутствуют
Режиссер: Робин Бадд, Донован Кук / Robin Budd, Donovan Cook
В ролях
Питера Пэн, Венди, Джейн, Капитан Крюк, Тинкер Белл, Динь-Динь и Потерянные Мальчики
Описание
Венди выросла, теперь у неё свои собственные дети и каждый вечер она рассказывает им истории про Питера Пэна, мальчика, отказавшегося становиться взрослым. Упрямая 12-летняя дочь Венди, Джейн, не имеет ни малейшего желания слушать всю эту ерунду.
Именно поэтому Капитан Крюк использует девочку в качестве заложника в войне против своего главного врага. Питер Пэн, Тинкер Белл и Потерянные Мальчики прибывают к ней на помощь; однако, даже они не могут заставить поверить Джейн в волшебный мир. Если она не верит, то значит она не может летать, а другого пути для возвращения домой нет.
Всё усугубляется тем, что без веры Джейн в фей, Тинкер Белл может умереть. Когда фея медленно начинает исчезать, Питер предпринимает всё возможное, чтобы спасти девочку от безжалостного Капитана Крюка и доказать ей, что с верой в волшебство и крепкой дружбой нет ничего невозможного.
IMDB , КиноПоиск
Источник/Качество: HDTVRip
Формат: AVI
Видео кодек: XviD
Аудио кодек: MP3
Видео: 672x400 (1.86:1), 23.976 fps, XviD MPEG-4 ~1 302 kbps avg, 0.20 bit/pixel
Аудио: 48.0 kHz, MPEG Layer 3, 2 ch, ~128 kbps
General
Complete name : C:\Users\Юличка\Documents\пиратка\Питер Пэн 2\Piter_Pen_2_[pirat.ca].avi
Format : AVI
Format/Info : Audio Video Interleave
File size : 746 MiB
Duration : 1h 12mn
Overall bit rate : 1 439 Kbps
Writing application : VirtualDubMod 1.5.10.2 (build 2540/release)
Writing library : VirtualDubMod build 2540/release
Video
Format : MPEG-4 Visual
Format profile : Streaming [email protected]
Format settings, BVOP : Yes
Format settings, QPel : No
Format settings, GMC : No warppoints
Format settings, Matrix : Default
Codec ID : XVID
Codec ID/Hint : XviD
Duration : 1h 12mn
Bit rate : 1 302 Kbps
Width : 672 pixels
Height : 400 pixels
Display aspect ratio : 1.680
Frame rate : 23.976 fps
Resolution : 24 bits
Colorimetry : 4:2:0
Scan type : Progressive
Bits/(Pixel*Frame) : 0.202
Stream size : 675 MiB (90%)
Writing library : XviD 50
Audio
Format : MPEG Audio
Format version : Version 1
Format profile : Layer 3
Codec ID : 55
Codec ID/Hint : MP3
Duration : 1h 12mn
Bit rate mode : Constant
Bit rate : 128 Kbps
Channel(s) : 2 channels
Sampling rate : 48.0 KHz
Resolution : 16 bits
Stream size : 66.4 MiB (9%)
Alignment : Aligned on interleaves
Interleave, duration : 42 ms (1.00 video frame)
Interleave, preload duration : 504 ms
Download / Скачать

Хотите скачать бесплатно? Зарегистрируйтесь на сайте (ссылка на регистрацию). Pirat.ca - самый быстрый торрент трекер в рунете!

Как скачивать  ·   Что такое торрент  ·   Рейтинг и ограничения

Пост 11-Фев-2012 10:10 (спустя 44 минуты)

Топик был перенесен из форума Мультипликация в форум Зарубежные полнометражные мультфильмы

erchine
 

sandman1973

Гроза морей

2129

Пост 12-Фев-2012 09:49 (спустя 1 день)

[Q] 

Как мульт?

_________________

[Профиль]  [ЛС] 

janikakraven

Штурман

Пост 15-Май-2012 16:30 (спустя 3 месяца 3 дня)

[Q] 

неплохой, детям понравилось
[Профиль]  [ЛС] 

Iliaomsk

Морской Волк

127

Пост 17-Июн-2012 10:06 (спустя 1 месяц 1 день)

[Q] 

[Профиль]  [ЛС] 

kest98

Корсар

Пост 22-Июл-2012 18:55 (спустя 1 месяц 5 дней)

[Q] 

скорости дайте плз
[Профиль]  [ЛС] 

kest98

Корсар

Пост 22-Июл-2012 22:22 (спустя 3 часа)

[Q] 

{мат} ребят скорости подгоните
уже 6 часов качаю
всего 6 кб/сек
[Профиль]  [ЛС] 

Wolf111

57124

Пост 31-Июл-2012 11:19 (спустя 8 дней)

[Q] 

Помогу с раздачей
[Профиль]  [ЛС] 

CHARLI2236

1097

Пост 24-Июл-2013 19:38 (спустя 11 месяцев 24 дня)

[Q] 

2

_________________
[Профиль]  [ЛС] 

UncleFather

Легенда

Пост 17-Янв-2014 14:13 (спустя 5 месяцев 23 дня)

[Q] 

Нормальный мультик - ребенку нравится

_________________
Одни боялись Пью, другие - Билли Бонса, а меня... меня боялся сам Флинт
[Профиль]  [ЛС] 

shalonina

Гроза морей

Пост 26-Авг-2014 16:44 (спустя 7 месяцев 9 дней)

[Q] 

Спасибо!!!

_________________
[Профиль]  [ЛС] 
Показать сообщения:    
Ответить на тему

Текущее время: Сегодня 12:50

Часовой пояс: GMT + 4



Вы не можете начинать темы
Вы не можете отвечать на сообщения
Вы не можете редактировать свои сообщения
Вы не можете удалять свои сообщения
Вы не можете голосовать в опросах
Вы не можете прикреплять файлы к сообщениям
Вы не можете скачивать файлы

▼ Вниз