ML
     
  Уважаемый Гость!
Вы можете поддержать проект и зарегистрироваться у наших партнеров - онлайн-стратегия MyLands. При регистрации в игре Вы получите код, который сможете активировать после регистрации на pirat.ca и получить 1000 дублонов.

Ваш код:
db0e0ad91548759ffeb9bb88bed405e1a4b3c165
 
     

Спирит: Душа прерий / Spirit: Stallion of the Cimarron (Келли Эсбёри / Kelly Asbury, Лорна Кук / Lorna Cook) [2002 г., приключения, семейный, вестерн, мультфильм, DVDRip] Dub (Лицензия)

Ответить на тему
 
Автор
Сообщение

Пост 12-Фев-2012 09:50

[Q] 

ara1205

Спирит: Душа прерий / Spirit: Stallion of the Cimarron
Год выпуска: 2002
Мировая премьера: 18 мая 2002
Российская премьера: 31 октября 2002
Производство: США
Жанр: приключения, семейный, вестерн, мультфильм
Продолжительность: 01:20:01
Перевод: Профессиональный (полное дублирование) [Лицензия]
Субтитры: отсутствуют
Режиссер: Келли Эсбёри / Kelly Asbury, Лорна Кук / Lorna Cook
Описание
Этот приключенческий мультфильм рассказывает историю дикого жеребца мустанга Спирита, путешествующего по территории всей Америки. Храбрый Спирит заводит дружбу с молодым индейцем Лакотой и находит любовь с красивой кобылой по имени Дождь.
IMDB , КиноПоиск
Источник/Качество: DVDRip
Формат: AVI
Видео кодек: XviD
Аудио кодек: MP3
Видео: 720x304 (2.37:1), 25 fps, XviD build 50 ~1165 kbps avg, 0.21 bit/pixel
Аудио: 48 kHz, MPEG Layer 3, 2 ch, ~128.00 kbps avg
General
Complete name : C:\Users\Юличка\Documents\пиратка\Спирит Душа прерий\Спирит - Душа Прерий (2002).avi
Format : AVI
Format/Info : Audio Video Interleave
File size : 746 MiB
Duration : 1h 20mn
Overall bit rate : 1 303 Kbps
Writing application : VirtualDubMod 1.5.10.2 (build 2540/release)
Writing library : VirtualDubMod build 2540/release
Video
Format : MPEG-4 Visual
Format profile : Streaming [email protected]
Format settings, BVOP : Yes
Format settings, QPel : No
Format settings, GMC : No warppoints
Format settings, Matrix : Custom
Codec ID : XVID
Codec ID/Hint : XviD
Duration : 1h 20mn
Bit rate : 1 166 Kbps
Width : 720 pixels
Height : 304 pixels
Display aspect ratio : 2.35
Frame rate : 25.000 fps
Resolution : 24 bits
Colorimetry : 4:2:0
Scan type : Progressive
Bits/(Pixel*Frame) : 0.213
Stream size : 667 MiB (89%)
Writing library : XviD 50
Audio
Format : MPEG Audio
Format version : Version 1
Format profile : Layer 3
Codec ID : 55
Codec ID/Hint : MP3
Duration : 1h 20mn
Bit rate mode : Constant
Bit rate : 128 Kbps
Minimum bit rate : 128 Kbps
Channel(s) : 2 channels
Sampling rate : 48.0 KHz
Resolution : 16 bits
Stream size : 73.3 MiB (10%)
Alignment : Aligned on interleaves
Interleave, duration : 40 ms (1.00 video frame)
Interleave, preload duration : 504 ms
Writing library : LAME3.98r
Encoding settings : CBR
Download / Скачать

Хотите скачать бесплатно? Зарегистрируйтесь на сайте (ссылка на регистрацию). Pirat.ca - самый быстрый торрент трекер в рунете!

Как скачивать  ·   Что такое торрент  ·   Рейтинг и ограничения

berezeca

Корсар

Пост 12-Фев-2012 12:20 (спустя 2 часа 29 минут)

[Q] 

Спасибо.
[Профиль]  [ЛС] 

Dr. Drug

Штурман

7

Пост 01-Май-2012 16:29 (спустя 2 месяца 18 дней)

[Q] 


_________________
Только единицы знают, что миллионы состоят из нулей.
[Профиль]  [ЛС] 

Элизиотта

Морской Волк

329

Пост 15-Май-2012 17:05 (спустя 14 дней)

[Q] 

Обожаю этот мультфильм!
[Профиль]  [ЛС] 

CHARLI2236

1098

Пост 25-Июл-2013 18:15 (спустя 1 год 2 месяца)

[Q] 

1

_________________
[Профиль]  [ЛС] 

Вут

Морской Волк

72

Пост 08-Авг-2013 07:27 (спустя 13 дней)

[Q] 

Классный мультик! Спасибо! Лови бочку
[Профиль]  [ЛС] 

darkroot

Шкипер

Пост 03-Июл-2014 07:49 (спустя 10 месяцев 26 дней)

[Q] 

спасибо !COOL! шикарный мульт

_________________
[Профиль]  [ЛС] 
Показать сообщения:    
Ответить на тему

Текущее время: Сегодня 08:04

Часовой пояс: GMT + 4



Вы не можете начинать темы
Вы не можете отвечать на сообщения
Вы не можете редактировать свои сообщения
Вы не можете удалять свои сообщения
Вы не можете голосовать в опросах
Вы не можете прикреплять файлы к сообщениям
Вы не можете скачивать файлы

▼ Вниз