ML
     
  Уважаемый Гость!
Вы можете поддержать проект и зарегистрироваться у наших партнеров - онлайн-стратегия MyLands. При регистрации в игре Вы получите код, который сможете активировать после регистрации на pirat.ca и получить 1000 дублонов.

Ваш код:
fe4e93b754a7c2b306fcfc8bc32532ea1cf59d3b
 
     

Всем хана! / Disaster! (Рой Т. Вуд / Roy T. Wood) [2005 г., США, комедия, мультфильм, пластилиновая анимация, DVDRip]

Ответить на тему
 
Автор
Сообщение

Пост 14-Фев-2012 11:51

[Q] 

Андря

Всем хана! / Disaster!
Год выпуска: 2005
Страна: США
Жанр: комедия, мультфильм, пластилиновая анимация
Продолжительность: 01:19:04
Перевод: Профессиональный (полное дублирование)
Режиссер: Рой Т. Вуд / Roy T. Wood
В ролях: Джим Каммингс, Гленн Моршауэр, Дэнни Манн, Стив Мэккалл, Джинни Илайас, Хезер Кэппс, Айзек С. Синглтон мл., Гленн Такакджян, Мэтт Салливан, Никки Сикс
Описание: Если астероид со славным именем Шон Коннери все-таки доберется до Земли, на нашей планете не останется в живых никого. Даже бактерий. Человечество может спасти только команда супер-профессионалов, состоящая из порнозвезды, робота-гея, грудастой блондинки и других, не менее колоритных персонажей. Под мудрым руководством парализованного ученого им предстоит бросить вызов громадной каменюке, угрожающей жизни ни в чем не повинных бактерий.
Качество: DVDRip
Формат: AVI
Видео кодек: XVID
Аудиокодек: MPEG Audio
Видео: XviD, 640x368, 1107 Кбит/сек, 16:9, 25,000 кадров/сек, 8 бит
Аудио 1: MP3, 108 Кбит/сек, 128 Кбит/сек, 2 канала, 48,0 КГц [Dub]
Общее
Полное имя : Всем хана.avi
Формат : AVI
Формат/Информация : Audio Video Interleave
Размер файла : 700 Мбайт
Продолжительность : 1 ч. 19 м.
Режим общего битрейта : Переменный
Общий поток : 1228 Кбит/сек
Программа кодирования : VirtualDubMod 1.5.4.1 (build 2178/release)
Библиотека кодирования : VirtualDubMod build 2178/release
Видео
Идентификатор : 0
Формат : MPEG-4 Visual
Профиль формата : Advanced [email protected]
Параметр BVOP формата : 1
Параметр QPel формата : Нет
Параметр GMC формата : Без точки перехода
Параметр матрицы формата : Выборочная
Идентификатор кодека : XVID
Идентификатор кодека/Подсказка : XviD
Продолжительность : 1 ч. 19 м.
Битрейт : 1107 Кбит/сек
Ширина : 640 пикселей
Высота : 368 пикселей
Соотношение сторон : 16:9
Частота кадров : 25,000 кадров/сек
Цветовое пространство : YUV
Субдискретизация насыщенности : 4:2:0
Битовая глубина : 8 бит
Тип развёртки : Прогрессивная
Метод сжатия : С потерями
Бит/(Пиксели*Кадры) : 0.188
Размер потока : 631 Мбайт (90%)
Библиотека кодирования : XviD 1.2.0.dev47 (UTC 2006-11-01)
Аудио
Идентификатор : 1
Формат : MPEG Audio
Версия формата : Version 1
Профиль формата : Layer 3
Режим : Joint stereo
Расширение режима : MS Stereo
Идентификатор кодека : 55
Идентификатор кодека/Подсказка : MP3
Продолжительность : 1 ч. 19 м.
Вид битрейта : Переменный
Битрейт : 108 Кбит/сек
Номинальный битрейт : 128 Кбит/сек
Каналы : 2 канала
Частота : 48,0 КГц
Метод сжатия : С потерями
Размер потока : 61,4 Мбайт (9%)
Выравнивание : Соединение по промежуткам
Продолжительность промежутка : 24 мс. (0,60 видеокадр)
Время предзагрузки промежутка : 170 мс.
Библиотека кодирования : LAME3.97
Настройки программы : -m j -V 4 -q 2 -lowpass 17 --abr 128





Download / Скачать

Хотите скачать бесплатно? Зарегистрируйтесь на сайте (ссылка на регистрацию). Pirat.ca - самый быстрый торрент трекер в рунете!

Как скачивать  ·   Что такое торрент  ·   Рейтинг и ограничения

Пост 14-Фев-2012 12:24 (спустя 33 минуты)

Топик был перенесен из форума Мультипликация в форум Зарубежные полнометражные мультфильмы

zyyx
 

Voland57

Корсар

Пост 11-Июн-2012 15:21 (спустя 3 месяца 26 дней)

[Q] 

[Профиль]  [ЛС] 
Показать сообщения:    
Ответить на тему

Текущее время: Сегодня 14:25

Часовой пояс: GMT + 4



Вы не можете начинать темы
Вы не можете отвечать на сообщения
Вы не можете редактировать свои сообщения
Вы не можете удалять свои сообщения
Вы не можете голосовать в опросах
Вы не можете прикреплять файлы к сообщениям
Вы не можете скачивать файлы

▼ Вниз