ML
     
  Уважаемый Гость!
Вы можете поддержать проект и зарегистрироваться у наших партнеров - онлайн-стратегия MyLands. При регистрации в игре Вы получите код, который сможете активировать после регистрации на pirat.ca и получить 1000 дублонов.

Ваш код:
e6008d9811a0b6a1393c3dc51ecd7bc35637bc21
 
     

Мулан / Mulan (Тони Бэнкрофт / Tony Bancroft, Бэрри Кук / Barry Cook) [1998 г., мюзикл, комедия, приключения, DVDRip] Dub (Лицензия)

Ответить на тему
 
Автор
Сообщение

Пост 14-Фев-2012 15:18

[Q] 

ara1205

Мулан / Mulan
Год выпуска: 1998
Мировая премьера: 5 июня 1998
Российская премьера: 25 декабря 1998
Производство: США
Жанр: мюзикл, комедия, приключения
Продолжительность: 01:24:17
Перевод: Профессиональный (полное дублирование) [Лицензия]
Субтитры: отсутствуют
Режиссер: Тони Бэнкрофт / Tony Bancroft, Бэрри Кук / Barry Cook
Описание
Этот незабываемый мультфильм расскажет вам удивительную историю об отважной девушке Мулан, жившей в древнем Китае в далеком прошлом.
Для великого народа наступили тяжелые времена: на страну напало воинственное племя гуннов. Переодевшись в мужскую одежду, Мулан присоединяется к другим воинам и отправляется в опасный поход к подножию заснеженных гор. Ее сопровождает забавный дракончик Мушу, который больше похож на маленькую собачку, чем на мифическое чудовище. Пытаясь скрыть тайну, они попадают в забавные ситуации и не подозревают, что их секрет вот-вот раскроется...
Уолт Дисней приветствует российского зрителя и приглашает всю вашу семью совершить вместе с Мулан волшебное путешествие, полное захватывающих приключений, веселых шуток и неподражаемой музыки, которое вам дарит самая знаменитая мультипликационная студия в мире!
IMDB , КиноПоиск
Источник/Качество: DVDRip
Формат: AVI
Видео кодек: XviD
Аудио кодек: MP3
Видео: 608x352, 25 fps, XviD, ~1023 kbps avg, 0.19 bit/pixel
Аудио: 48 kHz, MPEG Layer 3, 2 ch, ~128.00 kbps avg
General
Complete name : C:\Users\Юличка\Documents\пиратка\Мулан\Mulan.1998.[pirat.ca].avi
Format : AVI
Format/Info : Audio Video Interleave
File size : 700 MiB
Duration : 1h 24mn
Overall bit rate : 1 161 Kbps
Writing application : FairUse Wizard - http://fairusewizard.com
Writing library : The best and REALLY easy backup tool
Video
Format : MPEG-4 Visual
Format profile : Streaming [email protected]
Format settings, BVOP : Yes
Format settings, QPel : No
Format settings, GMC : No warppoints
Format settings, Matrix : Default
Codec ID : XVID
Codec ID/Hint : XviD
Duration : 1h 24mn
Bit rate : 1 023 Kbps
Width : 608 pixels
Height : 352 pixels
Display aspect ratio : 16/9
Frame rate : 25.000 fps
Resolution : 24 bits
Colorimetry : 4:2:0
Scan type : Progressive
Bits/(Pixel*Frame) : 0.191
Stream size : 617 MiB (88%)
Writing library : XviD 1.1.0 Beta2 (UTC 2005-04-04)
Audio
Format : MPEG Audio
Format version : Version 1
Format profile : Layer 3
Codec ID : 55
Codec ID/Hint : MP3
Duration : 1h 24mn
Bit rate mode : Constant
Bit rate : 128 Kbps
Minimum bit rate : 128 Kbps
Channel(s) : 2 channels
Sampling rate : 48.0 KHz
Resolution : 16 bits
Stream size : 77.2 MiB (11%)
Alignment : Aligned on interleaves
Interleave, duration : 40 ms (1.00 video frame)
Interleave, preload duration : 504 ms
Writing library : LAME3.96r
Encoding settings : CBR
Download / Скачать

Хотите скачать бесплатно? Зарегистрируйтесь на сайте (ссылка на регистрацию). Pirat.ca - самый быстрый торрент трекер в рунете!

Как скачивать  ·   Что такое торрент  ·   Рейтинг и ограничения

Пост 14-Фев-2012 15:36 (спустя 17 минут)

Топик был перенесен из форума Мультипликация в форум Зарубежные полнометражные мультфильмы

erchine
 

wirtual

Гроза морей

Пост 15-Фев-2012 17:41 (спустя 1 день 2 часа)

[Q] 

классный мульт, особенно дракон жжот

_________________
не будешь делиться - останешься одноклеточным
[Профиль]  [ЛС] 

phaeton77

Корсар

Пост 18-Фев-2012 09:26 (спустя 2 дня 15 часов)

[Q] 

[Профиль]  [ЛС] 

zpSaid

123

Пост 13-Апр-2012 23:25 (спустя 1 месяц 24 дня)

[Q] 

Мушу жжот!

_________________
Джавдет трус! Абдула воин!
[Профиль]  [ЛС] 

CHARLI2236

1097

Пост 24-Июл-2013 19:38 (спустя 1 год 3 месяца)

[Q] 

1

_________________
[Профиль]  [ЛС] 

MOPRK

Флибустьер

Пост 21-Сен-2013 17:36 (спустя 1 месяц 27 дней)

[Q] 

Спасибо!!! Пиратка рулез!!! 555
[Профиль]  [ЛС] 

UncleFather

Легенда

Пост 22-Янв-2014 15:45 (спустя 4 месяца)

[Q] 

Крутотенюшка)))

_________________
Одни боялись Пью, другие - Билли Бонса, а меня... меня боялся сам Флинт
[Профиль]  [ЛС] 

Феонолини

Шкипер

Пост 18-Апр-2014 15:59 (спустя 2 месяца 27 дней)

[Q] 

Очень хороший мультик и жизнеутверждающий)

_________________
Где есть свет, всегда есть тень. Под светом счастья... Всегда есть тень отчаяния ...
Хун Мин
[Профиль]  [ЛС] 
Показать сообщения:    
Ответить на тему

Текущее время: Сегодня 02:00

Часовой пояс: GMT + 4



Вы не можете начинать темы
Вы не можете отвечать на сообщения
Вы не можете редактировать свои сообщения
Вы не можете удалять свои сообщения
Вы не можете голосовать в опросах
Вы не можете прикреплять файлы к сообщениям
Вы не можете скачивать файлы

▼ Вниз