ML
     
  Уважаемый Гость!
Вы можете поддержать проект и зарегистрироваться у наших партнеров - онлайн-стратегия MyLands. При регистрации в игре Вы получите код, который сможете активировать после регистрации на pirat.ca и получить 1000 дублонов.

Ваш код:
2932e5898d0a27592397f70b82a5834d1e70ea19
 
     

Кот в сапогах / Puss in Boots (Крис Миллер / Chris Miller) [2011 г., мультфильм, комедия, приключения, семейный, HDRip-AVC] Dub (Лицензия) [internal release]

Страницы :  1, 2  След.

Ответить на тему
 
Автор
Сообщение

Пост 16-Фев-2012 12:28

[Q] 

zyyx

Кот в сапогах / Puss in Boots
«А до Шрэка был...»
Год выпуска: 2011
Мировая премьера: 27 октября 2011
Российская премьера: 27 октября 2011, «Централ Партнершип»
Дата выхода DVD: 29 марта 2012, «Новый Диск»
Дата выхода Blu-Ray: 29 марта 2012, «Новый Диск»
Производство: США
Жанр: мультфильм, комедия, приключения, семейный
Продолжительность: 01:30:14
Перевод: Профессиональный (полное дублирование) [Лицензия]
Субтитры: отсутствуют
Режиссер: Крис Миллер / Chris Miller
В ролях
Антонио Бандерас, Сальма Хайек, Зак Галифианакис, Билли Боб Торнтон, Эми Седарис, Констанс Мари, Гильермо дель Торо, Рич Дитль, Райан Крего, Том Вилер
Описание
Мечи пересекутся и сердца будут разбиты в приключениях с одним из самых любимых персонажей из Шрэка — котом в сапогах. Это удалая поездка ранних лет кота в сапогах, когда он объединяется с умным Шалтай-Болтаем и сообразительной Кисой, чтобы украсть знаменитую Гусыню, несущую золотые яйца.
Источник/Качество: HDRip-AVC | Сэмпл
Формат: MKV
Видео кодек: H.264
Аудио кодек: AC3
Видео: 1024x432, 23.976 fps, 1933 Kbps, 0.178 bit/pixel
Аудио: 48.0 KHz, 6 ch, 384 Kbps
General
Complete name : K:\Puss in Boots.2011.HDRip-AVC.zyyx.mkv
Format : Matroska
File size : 1.46 GiB
Duration : 1h 30mn
Overall bit rate : 2 319 Kbps
Movie name : zyyx
Encoded date : UTC 2012-02-16 08:30:03
Writing application : mkvmerge v4.6.0 ('Still Crazy After All These Years') сборка от Mar 13 2011 18:33:29
Writing library : libebml v1.2.0 + libmatroska v1.1.0
Video
ID : 1
Format : AVC
Format/Info : Advanced Video Codec
Format profile : [email protected]
Format settings, CABAC : Yes
Format settings, ReFrames : 16 frames
Muxing mode : Container [email protected]
Codec ID : V_MPEG4/ISO/AVC
Duration : 1h 30mn
Bit rate : 1 889 Kbps
Nominal bit rate : 1 933 Kbps
Width : 1 024 pixels
Height : 432 pixels
Display aspect ratio : 2.35:1
Frame rate : 23.976 fps
Resolution : 24 bits
Colorimetry : 4:2:0
Scan type : Progressive
Bits/(Pixel*Frame) : 0.178
Stream size : 1.19 GiB (81%)
Writing library : x264 core 114 r1924 08d04a4
Audio
ID : 2
Format : AC-3
Format/Info : Audio Coding 3
Codec ID : A_AC3
Duration : 1h 30mn
Bit rate mode : Constant
Bit rate : 384 Kbps
Channel(s) : 6 channels
Channel positions : Front: L C R, Surround: L R, LFE
Sampling rate : 48.0 KHz
Stream size : 248 MiB (17%)
Download / Скачать

Хотите скачать бесплатно? Зарегистрируйтесь на сайте (ссылка на регистрацию). Pirat.ca - самый быстрый торрент трекер в рунете!

Как скачивать  ·   Что такое торрент  ·   Рейтинг и ограничения



Последний раз редактировалось: zyyx (2012-02-16 12:30), всего редактировалось 1 раз

Пост 16-Фев-2012 12:29 (спустя 1 минута)

Топик был перенесен из форума Мультипликация в форум Новинки (HD|DVD|BD|TV|SAT|PDTV| - Rips)

Skinwalker
 

dimonpa

Гроза морей

Пост 16-Фев-2012 13:55 (спустя 1 час 26 минут)

[Q] 

[Профиль]  [ЛС] 

Olegkrv

Шкипер

Пост 16-Фев-2012 13:58 (спустя 3 минуты)

[Q] 

[Профиль]  [ЛС] 

Wanderer5258

Лоцман

Пост 16-Фев-2012 14:06 (спустя 8 минут)

[Q] 


_________________
[Профиль]  [ЛС] 

exsmo

Морской Волк

Пост 16-Фев-2012 15:02 (спустя 55 минут)

[Q] 


_________________
[Профиль]  [ЛС] 

sorvigolova

Корсар

799

Пост 16-Фев-2012 16:24 (спустя 1 час 21 минута)

[Q] 

[Профиль]  [ЛС] 

Strix

Флибустьер

Пост 16-Фев-2012 16:38 (спустя 14 минут)

[Q] 

Спасибо, кул мульт
[Профиль]  [ЛС] 

ier333

Лоцман

Пост 16-Фев-2012 16:44 (спустя 5 минут)

[Q] 

Фигня, не качает
[Профиль]  [ЛС] 

Olegkrv

Шкипер

Пост 16-Фев-2012 17:38 (спустя 53 минуты)

[Q] 

Вернись
[Профиль]  [ЛС] 

Selim

Корсар

Пост 16-Фев-2012 17:55 (спустя 17 минут)

[Q] 

Плохо что в MKV
[Профиль]  [ЛС] 

hrust77

Штурман

Пост 16-Фев-2012 18:03 (спустя 8 минут)

[Q] 

Плохо что в MKV
Да ну, совсем наоборот
[Профиль]  [ЛС] 

hrust77

Штурман

Пост 16-Фев-2012 18:19 (спустя 15 минут)

[Q] 

Вообще не качает
[Профиль]  [ЛС] 

leonid.

Флибустьер

Пост 16-Фев-2012 18:57 (спустя 37 минут)

[Q] 

спасибо большое!
[Профиль]  [ЛС] 

wirtual

Гроза морей

Пост 16-Фев-2012 20:01 (спустя 1 час 4 минуты)

[Q] 


_________________
не будешь делиться - останешься одноклеточным
[Профиль]  [ЛС] 

KIRST

Корсар

Пост 16-Фев-2012 20:05 (спустя 4 минуты)

[Q] 

[Профиль]  [ЛС] 

Alexe10

Гроза морей

36

Пост 16-Фев-2012 22:10 (спустя 2 часа 4 минуты)

[Q] 

[Профиль]  [ЛС] 

gr71silver

Корсар

Пост 17-Фев-2012 20:07 (спустя 21 час)

[Q] 

Спасибо!!
[Профиль]  [ЛС] 

romansl

Шкипер

Пост 17-Фев-2012 21:10 (спустя 1 час 3 минуты)

[Q] 

Хороший мульт!
[Профиль]  [ЛС] 

Voodoo3dfx

Шкипер

56

Пост 17-Фев-2012 22:54 (спустя 1 час 43 минуты)

[Q] 


посмотрим
[Профиль]  [ЛС] 

FRED

Шкипер

Пост 18-Фев-2012 17:04 (спустя 18 часов)

[Q] 

[Профиль]  [ЛС] 

valdislaf

Штурман

Пост 18-Фев-2012 17:09 (спустя 5 минут)

[Q] 


_________________
закрома оф Родина очень забористо!!!
[Профиль]  [ЛС] 

berezeca

Корсар

Пост 19-Фев-2012 10:41 (спустя 17 часов)

[Q] 

Спасибо.
[Профиль]  [ЛС] 

FiliN1987

Шкипер

Пост 19-Фев-2012 11:20 (спустя 38 минут)

[Q] 

[Профиль]  [ЛС] 

$ilver@

Шкипер

Пост 19-Фев-2012 13:24 (спустя 2 часа 4 минуты)

[Q] 

Спасибо, давно хотел посмотреть!Мульт должен быть прикольный!)
[Профиль]  [ЛС] 

citrus

Морской Волк

Пост 19-Фев-2012 21:12 (спустя 7 часов)

[Q] 

[Профиль]  [ЛС] 

Leontia

Лоцман

Пост 28-Фев-2012 14:16 (спустя 8 дней)

[Q] 

Классный мульт, даже мужу понравился)))))
[Профиль]  [ЛС] 

Optimus

Шкипер

Пост 28-Фев-2012 18:15 (спустя 3 часа)

[Q] 

[Профиль]  [ЛС] 

Shlfck

1428

Пост 28-Фев-2012 18:27 (спустя 11 минут)

[Q] 

чУдный мульт

_________________
[Профиль]  [ЛС] 

Lonely

Штурман

Пост 29-Фев-2012 18:09 (спустя 23 часа)

[Q] 

возьму поглазеть
спасибок
[Профиль]  [ЛС] 
Показать сообщения:    
Ответить на тему

Текущее время: Сегодня 08:03

Часовой пояс: GMT + 4



Вы не можете начинать темы
Вы не можете отвечать на сообщения
Вы не можете редактировать свои сообщения
Вы не можете удалять свои сообщения
Вы не можете голосовать в опросах
Вы не можете прикреплять файлы к сообщениям
Вы не можете скачивать файлы

▼ Вниз