ML
     
  Уважаемый Гость!
Вы можете поддержать проект и зарегистрироваться у наших партнеров - онлайн-стратегия MyLands. При регистрации в игре Вы получите код, который сможете активировать после регистрации на pirat.ca и получить 1000 дублонов.

Ваш код:
e93cd9e43017f251127f220889864c05934e61c6
 
     

Монстр в Париже / Un monstre à Paris (Бибо Бержерон / Bibo Bergeron) [2011 г., мультфильм, фэнтези, комедия, приключения, музыка, BDRip-AVC] Dub (Лицензия) [internal release]

Ответить на тему
 
Автор
Сообщение

Пост 18-Фев-2012 11:01

[Q] 

zyyx

--Монстр в Париже / Un monstre à Paris-- Год выпуска: 2011
Мировая премьера: 28 августа 2011
Российская премьера: 29 декабря 2011, «Парадиз»
Дата выхода DVD: 21 февраля 2012, «Парадиз Видео»
Дата выхода Blu-Ray: 21 февраля 2012, «Парадиз Видео»
Производство: Франция
Жанр: мультфильм, фэнтези, комедия, приключения, музыка
Продолжительность: 01:29:59
Перевод: Профессиональный (полное дублирование) [Лицензия]
Субтитры: отсутствуют
Режиссер: Бибо Бержерон / Bibo Bergeron
В ролях
Ванесса Паради, Матье Шедид, Гад Эльмалех, Франсуа Клюзе, Людивин Санье, Жюли Ферье, Бруно Саломон, Себастьян Дежу, Филип Петью, Боб Бэлабан
Описание
Париж. 1910 год. Ужасный монстр, напоминающий гигантское насекомое, нагоняет страх на всю Францию. Застенчивый киномеханик и неутомимый изобретатель начинают охоту на него. В этой погоне они знакомятся со звездой кабаре, сумасшедшим ученым и его умной обезьянкой и, наконец, самим монстром, который оказывается совсем не страшным. Теперь безобидное, как блоха, чудовище ищет у своих новых друзей защиты от вредного начальника городской полиции.
Источник/Качество: BDRip-AVC | Сэмпл
Формат: MKV
Видео кодек: H.264
Аудио кодек: AC3
Видео: 1024x544, 23.976 fps, 1940 Kbps, 0.141 bit/pixel
Аудио: 48.0 KHz, 6 ch, 384 Kbps
General
Complete name : Q:\Un monstre à Paris.2011.BDRip-AVC.zyyx.mkv
Format : Matroska
File size : 1.46 GiB
Duration : 1h 30mn
Overall bit rate : 2 319 Kbps
Encoded date : UTC 2012-02-18 07:01:17
Writing application : mkvmerge v4.6.0 ('Still Crazy After All These Years') сборка от Mar 13 2011 18:33:29
Writing library : libebml v1.2.0 + libmatroska v1.1.0
Video
ID : 1
Format : AVC
Format/Info : Advanced Video Codec
Format profile : [email protected]
Format settings, CABAC : Yes
Format settings, ReFrames : 16 frames
Muxing mode : Container [email protected]
Codec ID : V_MPEG4/ISO/AVC
Duration : 1h 30mn
Bit rate : 1 889 Kbps
Nominal bit rate : 1 940 Kbps
Width : 1 024 pixels
Height : 544 pixels
Display aspect ratio : 1.882
Frame rate : 23.976 fps
Resolution : 24 bits
Colorimetry : 4:2:0
Scan type : Progressive
Bits/(Pixel*Frame) : 0.141
Stream size : 1.19 GiB (81%)
Writing library : x264 core 114 r1924 08d04a4
Audio
ID : 2
Format : AC-3
Format/Info : Audio Coding 3
Codec ID : A_AC3
Duration : 1h 30mn
Bit rate mode : Constant
Bit rate : 384 Kbps
Channel(s) : 6 channels
Channel positions : Front: L C R, Surround: L R, LFE
Sampling rate : 48.0 KHz
Stream size : 248 MiB (17%)
Download / Скачать

Хотите скачать бесплатно? Зарегистрируйтесь на сайте (ссылка на регистрацию). Pirat.ca - самый быстрый торрент трекер в рунете!

Как скачивать  ·   Что такое торрент  ·   Рейтинг и ограничения



Последний раз редактировалось: zyyx (2012-02-18 11:12), всего редактировалось 1 раз

Пост 18-Фев-2012 11:20 (спустя 18 минут)

Топик был перенесен из форума Мультипликация в форум Новинки (HD|DVD|BD|TV|SAT|PDTV| - Rips)

ara1205
 

FRED

Шкипер

Пост 18-Фев-2012 16:56 (спустя 5 часов)

[Q] 

[Профиль]  [ЛС] 

Bozo

Флибустьер

Пост 18-Фев-2012 20:36 (спустя 3 часа)

[Q] 

[Профиль]  [ЛС] 

Пост 20-Мар-2012 21:25 (спустя 1 месяц 2 дня)

Топик был перенесен из форума Новинки (HD|DVD|BD|TV|SAT|PDTV| - Rips) в форум Зарубежные полнометражные мультфильмы

ara1205
 

stellrat

Шкипер

62

Пост 08-Апр-2012 02:06 (спустя 1 месяц 18 дней)

[Q] 

мульт конечно хорош, но пугает блоха шириной со шкаф

_________________
[Профиль]  [ЛС] 

Bozo

Флибустьер

Пост 27-Янв-2013 20:17 (спустя 9 месяцев 19 дней)

[Q] 

какая ерунда (((
[Профиль]  [ЛС] 

black kat

Лоцман

Пост 08-Июл-2013 13:38 (спустя 5 месяцев 11 дней)

[Q] 

ПАСИБО!!!!!!!!!!!!!!!!!!!!
[Профиль]  [ЛС] 

Alapik

Лоцман

Пост 04-Янв-2014 22:00 (спустя 5 месяцев 27 дней)

[Q] 

Отличный мульт, особенно саундтреки! Лови бочку
[Профиль]  [ЛС] 

coderzona

Штурман

Пост 05-Янв-2014 14:15 (спустя 16 часов)

[Q] 

Спасибо, посмотрим)
[Профиль]  [ЛС] 

shalonina

Гроза морей

Пост 26-Авг-2014 16:46 (спустя 7 месяцев 21 день)

[Q] 

Лови бочку

_________________
[Профиль]  [ЛС] 

Пост 10-Ноя-2016 15:01 (спустя 2 года 2 месяца)

Топик был перенесен из форума Зарубежные полнометражные мультфильмы в форум Архив (Мультфильмы)
Причина переноса: Полного источника не было: 1 год 4 месяца
erchine
 
Показать сообщения:    
Ответить на тему

Текущее время: Сегодня 04:29

Часовой пояс: GMT + 4



Вы не можете начинать темы
Вы не можете отвечать на сообщения
Вы не можете редактировать свои сообщения
Вы не можете удалять свои сообщения
Вы не можете голосовать в опросах
Вы не можете прикреплять файлы к сообщениям
Вы не можете скачивать файлы

▼ Вниз