ML
     
  Уважаемый Гость!
Вы можете поддержать проект и зарегистрироваться у наших партнеров - онлайн-стратегия MyLands. При регистрации в игре Вы получите код, который сможете активировать после регистрации на pirat.ca и получить 1000 дублонов.

Ваш код:
6f9ab67d502902cc72a06c406977ddb589b7f39d
 
     

В поисках Немо / Finding Nemo (Эндрю Стэнтон, Ли Анкрич / Andrew Stanton, Lee Unkrich) [20 / Finding Nemo (Эндрю Стэнтон, Ли Анкрич / Andrew Stanton, Lee Unkrich) [2003 г., Комедия, приключения, семейный, HDTVRip]

Ответить на тему
 
Автор
Сообщение

Пост 30-Окт-2011 02:13

[Q] 

Monaster

Лоцман

В поисках Немо / Finding Nemo
Год выпуска: 2003
Страна: США
Жанр: Комедия, приключения, семейный
Продолжительность: 01:32:12
Перевод: Профессиональный (полное дублирование)
Режиссер: Эндрю Стэнтон, Ли Анкрич / Andrew Stanton, Lee Unkrich
В ролях: Альберт Брукс, Эллен ДеДженерес, Александр Гулд, Уиллем Дефо, Брэд Гэррет, Эллисон Джэнни, Остин Пендлтон, Стивен Рут, Викки Льюис, Джо Рэнфт
Описание: Среди прекрасных тропических морских стихий, в районе Большого барьерного рифа в уединении живет рыба-клоун по имени Марлин. Он растит своего единственного сыночка Немо. Океан и существующие в нем опасности очень страшат Марлина, и он как может ограждает сына от них, но молодой Немо, страдающий излишним любопытством, очень хочет разузнать побольше о таинственном рифе, рядом с которым они живут.
Когда Немо по иронии судьбы оказывается вдалеке от дома, да и еще сталкивается с угрозой стать обедом рыбы-танка, Марлин отправляется на поиски сына. Но Марлин, конечно же, понимает, что героический спасатель из него не получится и просит о помощи в поисках, Дори, королевскую синюю рыбу, которая хоть и страдает от того, что почти ничего не помнит, но добрее ее не отыскать во всем безбрежном океане!
Итак, наши герои отправляются в путешествие, в котором их подкарауливают многочисленные трудности и опасности…
Качество: HDTVRip
Формат: AVI
Видео кодек: XviD
Аудио кодек: AC3
Видео: 720x400 (1.80:1), 23.976 fps, XviD build 50 ~1858 kbps avg, 0.27 bit/pixel
Аудио: 48 kHz, AC3 Dolby Digital, 3/2 (L,C,R,l,r) + LFE ch, 384.00 kbps





Video
ID : 0
Format : MPEG-4 Visual
Format profile : Advanced [email protected]
Format settings, BVOP : 1
Format settings, QPel : No
Format settings, GMC : No warppoints
Format settings, Matrix : Default (MPEG)
Codec ID : XVID
Codec ID/Hint : XviD
Duration : 1h 32mn
Bit rate : 1 859 Kbps
Width : 720 pixels
Height : 400 pixels
Display aspect ratio : 16:9
Frame rate : 23.976 fps
Color space : YUV
Chroma subsampling : 4:2:0
Bit depth : 8 bits
Scan type : Progressive
Compression mode : Lossy
Bits/(Pixel*Frame) : 0.269
Stream size : 1.20 GiB (83%)
Writing library : XviD 1.2.1 (UTC 2008-12-04)
Audio
ID : 1
Format : AC-3
Format/Info : Audio Coding 3
Mode extension : CM (complete main)
Codec ID : 2000
Duration : 1h 32mn
Bit rate mode : Constant
Bit rate : 384 Kbps
Channel(s) : 6 channels
Channel positions : Front: L C R, Side: L R, LFE
Sampling rate : 48.0 KHz
Bit depth : 16 bits
Compression mode : Lossy
Stream size : 253 MiB (17%)
Alignment : Split accross interleaves
Interleave, duration : 42 ms (1.00 video frame)
Interleave, preload duration : 500 ms
Download / Скачать

Хотите скачать бесплатно? Зарегистрируйтесь на сайте (ссылка на регистрацию). Pirat.ca - самый быстрый торрент трекер в рунете!

Как скачивать  ·   Что такое торрент  ·   Рейтинг и ограничения



Последний раз редактировалось: Monaster (2011-11-11 23:25), всего редактировалось 1 раз

Пост 13-Ноя-2011 23:46 (спустя 14 дней)

Топик был перенесен из форума Мультипликация в форум Зарубежные полнометражные мультфильмы

zyyx
 

ELEN

Морской Волк

Пост 19-Май-2013 19:45 (спустя 1 год 6 месяцев)

[Q] 

[Профиль]  [ЛС] 

oldrevan

Шкипер

Пост 03-Июн-2013 00:26 (спустя 14 дней)

[Q] 

[Профиль]  [ЛС] 

MOPRK

Флибустьер

Пост 20-Сен-2013 20:23 (спустя 3 месяца 17 дней)

[Q] 

Спасибо!!! Супер! 555
[Профиль]  [ЛС] 

andrey1366613666

Штурман

Пост 12-Дек-2013 14:44 (спустя 2 месяца 21 день)

[Q] 

Спасибо!!! Супер! Спасибо!!!
[Профиль]  [ЛС] 

RedHawk

Флибустьер

Пост 15-Мар-2015 08:13 (спустя 1 год 3 месяца)

[Q] 

спасибо, мульт хорош.
[Профиль]  [ЛС] 

Clarence

Лоцман

Пост 04-Апр-2015 21:00 (спустя 20 дней)

[Q] 

Спасибо!!! Супер!
[Профиль]  [ЛС] 

svmaxuss

Мичман

Пост 06-Янв-2016 11:02 (спустя 9 месяцев 1 день)

[Q] 

Отличный мультфильм. Всем качать!!! Спасибо!!!
[Профиль]  [ЛС] 
Показать сообщения:    
Ответить на тему

Текущее время: Сегодня 16:27

Часовой пояс: GMT + 4



Вы не можете начинать темы
Вы не можете отвечать на сообщения
Вы не можете редактировать свои сообщения
Вы не можете удалять свои сообщения
Вы не можете голосовать в опросах
Вы не можете прикреплять файлы к сообщениям
Вы не можете скачивать файлы

▼ Вниз