ML
     
  Уважаемый Гость!
Вы можете поддержать проект и зарегистрироваться у наших партнеров - онлайн-стратегия MyLands. При регистрации в игре Вы получите код, который сможете активировать после регистрации на pirat.ca и получить 1000 дублонов.

Ваш код:
fcd618d94adc1456bccbde5047c9cd0930e4ae4d
 
     

Тимон и Пумба "Ужин с Тимоном и Пумбой" / Dining Out with Timon & Pumbaa (Тони Грэг, Роберт Ганнавай, Стив Моу / Toni Greg, Robert Gannaway, Stiv Mou) [1995, Детский, Семейный, Анимационный, DVDRip]

Ответить на тему
 
Автор
Сообщение

Пост 24-Фев-2012 15:58

[Q] 

Андря

Тимон и Пумба "Ужин с Тимоном и Пумбой" / Dining Out with Timon & Pumbaa Год выпуска: 1995
Страна: США-Walt Disney
Жанр: Анимационный,Приключения, Детский/Семейный
Продолжительность: 01:02:05
Перевод: Профессиональный (полное дублирование)
Субтитры: Русские, Английские (Srt)
Режиссёр: Тони Грэг, Роберт Ганнавай, Стив Моу / Toni Greg, Robert Gannaway, Stiv Mou
В ролях: Ерние Сабелла, Кевин Счон, Кори Буртон
Описание:В "Картофеле фри по-французски" Тимон и Пумба попадают на корабле во Францию в компании с улиткой. Понимая, что дни их нового друга сочтены, они разрабатывают план спасения.
"Русский час" - друзья приехали навестить русского родственника Пумбы, который собирается дать прощальное выступление в Большом Театре, но попадает в больницу. Пумба готов станцевать вместо него.
"Швейцарский промах" - Тимон и Пумба наслаждаются швейцарскими сладостями и знакомятся с часовщиком. Но вдруг ломаются городские часы и их новому другу грозит увольнение. Тимон крадет весь запас еды у птенца. Мать заставляет друзей присмотреть за ним, пока она ищет новую пищу. Но это была плохая идея и теперь главное "Спасти птицу" от новых нянек.
Качество: DVDRip
Формат: AVI
Видео кодек: DivX
Аудио кодек: MP3
Видео: DivX 5, 1434 Кбит/сек, 656х528, 5:4, 25,000 кадров/сек, 8 бит, 0.166 Бит/Пиксел
Аудио: MPEG Layer-3, 128 Кбит/сек, 2 канала, 48,0 КГц
Общее
Полное имя : Ужин с Тимоном и Пумбой.avi
Формат : AVI
Формат/Информация : Audio Video Interleave
Размер файла : 698 Мбайт
Продолжительность : 1 ч. 2 м.
Общий поток : 1572 Кбит/сек
Программа кодирования : VirtualDubMod 1.5.4.1 (build 2117/release)
Библиотека кодирования : VirtualDubMod build 2117/release
Видео
Идентификатор : 0
Формат : MPEG-4 Visual
Параметр BVOP формата : Нет
Параметр QPel формата : Нет
Параметр GMC формата : Без точки перехода
Параметр матрицы формата : Default (H.263)
Идентификатор кодека : DX50
Идентификатор кодека/Подсказка : DivX 5
Продолжительность : 1 ч. 2 м.
Битрейт : 1434 Кбит/сек
Ширина : 656 пикселей
Высота : 528 пикселей
Соотношение сторон : 5:4
Частота кадров : 25,000 кадров/сек
Цветовое пространство : YUV
Субдискретизация насыщенности : 4:2:0
Битовая глубина : 8 бит
Тип развёртки : Прогрессивная
Метод сжатия : С потерями
Бит/(Пиксели*Кадры) : 0.166
Размер потока : 637 Мбайт (91%)
Библиотека кодирования : DivX 5.1.1 (Maupiti) (UTC 2003-11-19)
Аудио
Идентификатор : 1
Формат : MPEG Audio
Версия формата : Version 1
Профиль формата : Layer 3
Режим : Joint stereo
Идентификатор кодека : 55
Идентификатор кодека/Подсказка : MP3
Продолжительность : 1 ч. 2 м.
Вид битрейта : Постоянный
Битрейт : 128 Кбит/сек
Каналы : 2 канала
Частота : 48,0 КГц
Метод сжатия : С потерями
Размер потока : 56,8 Мбайт (8%)
Выравнивание : Соединение по промежуткам
Продолжительность промежутка : 40 мс. (1,00 видеокадр)
Время предзагрузки промежутка : 504 мс.
Общее
Полное имя : Тимон и Пумба Eng.srt
Размер файла : 116 Кбайт
Общее
Полное имя : Тимон и Пумба Rus.srt
Размер файла : 115 Кбайт











Download / Скачать

Хотите скачать бесплатно? Зарегистрируйтесь на сайте (ссылка на регистрацию). Pirat.ca - самый быстрый торрент трекер в рунете!

Как скачивать  ·   Что такое торрент  ·   Рейтинг и ограничения



Последний раз редактировалось: Андря (2012-02-24 16:33), всего редактировалось 2 раз(а)

Пост 24-Фев-2012 16:30 (спустя 31 минута)

Топик был перенесен из форума Мультипликация в форум Зарубежные полнометражные мультфильмы

zyyx
 
Показать сообщения:    
Ответить на тему

Текущее время: Сегодня 12:52

Часовой пояс: GMT + 4



Вы не можете начинать темы
Вы не можете отвечать на сообщения
Вы не можете редактировать свои сообщения
Вы не можете удалять свои сообщения
Вы не можете голосовать в опросах
Вы не можете прикреплять файлы к сообщениям
Вы не можете скачивать файлы

▼ Вниз