ML
     
  Уважаемый Гость!
Вы можете поддержать проект и зарегистрироваться у наших партнеров - онлайн-стратегия MyLands. При регистрации в игре Вы получите код, который сможете активировать после регистрации на pirat.ca и получить 1000 дублонов.

Ваш код:
8b752b428cf60a012c159dcae592cd1392170115
 
     

Приключения Тинтина: Тайна Единорога / The Adventures of Tintin (Стивен Спилберг / Steven Spielberg) [2011 г., мультфильм, боевик, детектив, приключения, семейный, HDRip-AVC] Dub (Лицензия) [internal release]

Ответить на тему
 
Автор
Сообщение

Пост 24-Фев-2012 22:01

[Q] 

zyyx

--Приключения Тинтина: Тайна Единорога / The Adventures of Tintin
«This year, discover how far adventure will take you.»
-- Год выпуска: 2011
Мировая премьера: 23 октября 2011
Российская премьера: 3 ноября 2011, «WDSSPR»
Дата выхода DVD: 27 марта 2012, «Columbia/Sony»
Дата выхода Blu-Ray: 27 марта 2012, «Columbia/Sony»
Производство: США, Новая Зеландия
Жанр: мультфильм, боевик, детектив, приключения, семейный
Продолжительность: 01:46:51
Перевод: Профессиональный (полное дублирование) [Лицензия]
Оригинальный аудиопоток: английский
Субтитры: отсутствуют
Режиссер: Стивен Спилберг / Steven Spielberg
В ролях
Джейми Белл, Энди Серкис, Дэниэл Крэйг, Саймон Пегг, Кэри Элвис, Тоби Джонс, Ник Фрост, Себастьян Роше, Маккензи Крук, Тони Карран
Описание
Главный герой — молодой газетный репортёр Тинтин. Благодаря своей профессии он путешествует по всему миру и становится участником увлекательных приключений.

Источник/Качество: HDRip-AVC | Сэмпл
Формат: MKV
Видео кодек: H.264
Аудио кодек: AC3
Видео: 1024x432, 23.976 fps, 2103 Kbps, 0.193 bit/pixel
Аудио: 48.0 KHz, 6 ch, 320 Kbps Rus/Eng
General
Complete name : C:\xbox\The Adventures of Tintin.2011.HDRip-AVC.zyyx.mkv
Format : Matroska
File size : 2.05 GiB
Duration : 1h 46mn
Overall bit rate : 2 745 Kbps
Movie name : zyyx
Encoded date : UTC 2012-02-26 18:46:02
Writing application : mkvmerge v4.6.0 ('Still Crazy After All These Years') сборка от Mar 13 2011 18:33:29
Writing library : libebml v1.2.0 + libmatroska v1.1.0
Video
ID : 1
Format : AVC
Format/Info : Advanced Video Codec
Format profile : [email protected]
Format settings, CABAC : Yes
Format settings, ReFrames : 16 frames
Muxing mode : Container [email protected]
Codec ID : V_MPEG4/ISO/AVC
Duration : 1h 46mn
Bit rate : 2 050 Kbps
Nominal bit rate : 2 103 Kbps
Width : 1 024 pixels
Height : 432 pixels
Display aspect ratio : 2.35:1
Frame rate : 23.976 fps
Resolution : 24 bits
Colorimetry : 4:2:0
Scan type : Progressive
Bits/(Pixel*Frame) : 0.193
Stream size : 1.53 GiB (75%)
Writing library : x264 core 114 r1924 08d04a4
Audio #1
ID : 2
Format : AC-3
Format/Info : Audio Coding 3
Codec ID : A_AC3
Duration : 1h 46mn
Bit rate mode : Constant
Bit rate : 320 Kbps
Channel(s) : 6 channels
Channel positions : Front: L C R, Surround: L R, LFE
Sampling rate : 48.0 KHz
Stream size : 245 MiB (12%)
Title : Rus
Audio #2
ID : 3
Format : AC-3
Format/Info : Audio Coding 3
Codec ID : A_AC3
Duration : 1h 46mn
Bit rate mode : Constant
Bit rate : 320 Kbps
Channel(s) : 6 channels
Channel positions : Front: L C R, Surround: L R, LFE
Sampling rate : 48.0 KHz
Stream size : 245 MiB (12%)
Title : Eng






Download / Скачать

Хотите скачать бесплатно? Зарегистрируйтесь на сайте (ссылка на регистрацию). Pirat.ca - самый быстрый торрент трекер в рунете!

Как скачивать  ·   Что такое торрент  ·   Рейтинг и ограничения

Пост 26-Фев-2012 23:15 (спустя 2 дня 1 час)

Топик был перенесен из форума Мультипликация в форум Новинки (HD|DVD|BD|TV|SAT|PDTV| - Rips)

Skinwalker
 

dimonpa

Гроза морей

Пост 27-Фев-2012 07:58 (спустя 2 дня 9 часов)

[Q] 

[Профиль]  [ЛС] 

Alexe10

Гроза морей

36

Пост 27-Фев-2012 09:07 (спустя 1 час 9 минут)

[Q] 

[Профиль]  [ЛС] 

dp

Корсар

Пост 27-Фев-2012 09:25 (спустя 17 минут)

[Q] 

наконец то лицензия

_________________
Мог стать отличным пианистом, а стал поскудным программистом
[Профиль]  [ЛС] 

IL

Штурман

Пост 27-Фев-2012 09:40 (спустя 15 минут)

[Q] 

Спасибо, давно ждал лицензиию
[Профиль]  [ЛС] 

lexx

Корсар

129

Пост 27-Фев-2012 10:15 (спустя 35 минут)

[Q] 

[Профиль]  [ЛС] 

Andruxa86

Морской Волк

Пост 27-Фев-2012 12:03 (спустя 1 час 47 минут)

[Q] 

[Профиль]  [ЛС] 

asash

Морской Волк

Пост 27-Фев-2012 13:35 (спустя 1 час 31 минута)

[Q] 

Мультик прикольный. Картинка красивая с качественной прорисовкой. Вспомнил молодость (жевачки и наклейки). Надеюсь через год-два сделают продолжение.
[Профиль]  [ЛС] 

buba-79

Флибустьер

Пост 27-Фев-2012 16:03 (спустя 2 часа 28 минут)

[Q] 

[Профиль]  [ЛС] 

Vlad__treker

Морской Волк

184

Пост 27-Фев-2012 19:19 (спустя 3 часа)

[Q] 

zyyx,

_________________
...:::Pirat.ca:::...
..:::The Best:::...
[Профиль]  [ЛС] 

C0y0te

1417

Пост 27-Фев-2012 20:23 (спустя 1 час 4 минуты)

[Q] 

[Профиль]  [ЛС] 

sorvigolova

Корсар

798

Пост 27-Фев-2012 20:27 (спустя 3 минуты)

[Q] 

[Профиль]  [ЛС] 

wirtual

Гроза морей

Пост 29-Фев-2012 22:19 (спустя 2 дня 1 час)

[Q] 

с маленьким ребетенком пойдет смотреть ?

_________________
не будешь делиться - останешься одноклеточным
[Профиль]  [ЛС] 

Дэн

Флибустьер

Пост 06-Мар-2012 12:35 (спустя 5 дней)

[Q] 

про бухарика(человек синяк) капитана, детям понравится.
[Профиль]  [ЛС] 

Пост 29-Мар-2012 13:51 (спустя 23 дня)

Топик был перенесен из форума Новинки (HD|DVD|BD|TV|SAT|PDTV| - Rips) в форум Зарубежные полнометражные мультфильмы

ara1205
 

stellrat

Шкипер

62

Пост 08-Апр-2012 02:07 (спустя 1 месяц 1 день)

[Q] 

мне филь тоже понравился, а про бухарика дети и в каждом дворе в 3D и даже в 4D посмотреть могут

_________________
[Профиль]  [ЛС] 

Jell

Корсар

Пост 12-Май-2012 23:12 (спустя 1 месяц 4 дня)

[Q] 

[Профиль]  [ЛС] 

dido51

Морской Волк

Пост 04-Май-2013 09:29 (спустя 11 месяцев 22 дня)

[Q] 

[Профиль]  [ЛС] 

tddk

Юнга

Пост 23-Июн-2013 20:28 (спустя 1 месяц 19 дней)

[Q] 

Спасибо!
[Профиль]  [ЛС] 

dronofill

Корсар

Пост 01-Янв-2014 13:07 (спустя 6 месяцев 8 дней)

[Q] 

Дров в печь! пожалуйста!!! Скорость как у черепахи

_________________
Мира и добра)
[Профиль]  [ЛС] 

Raspberry

Морской Волк

193

Пост 30-Янв-2014 14:51 (спустя 29 дней)

[Q] 

спасибо, лови бочонок

_________________
[Профиль]  [ЛС] 

websaurus

Штурман

Пост 22-Апр-2014 12:34 (спустя 2 месяца 22 дня)

[Q] 

Классный мультик.
[Профиль]  [ЛС] 

Bankir

Шкипер

Пост 06-Май-2014 19:26 (спустя 14 дней)

[Q] 

!COOL! !COOL!
[Профиль]  [ЛС] 
Показать сообщения:    
Ответить на тему

Текущее время: Сегодня 06:19

Часовой пояс: GMT + 4



Вы не можете начинать темы
Вы не можете отвечать на сообщения
Вы не можете редактировать свои сообщения
Вы не можете удалять свои сообщения
Вы не можете голосовать в опросах
Вы не можете прикреплять файлы к сообщениям
Вы не можете скачивать файлы

▼ Вниз