ML
     
  Уважаемый Гость!
Вы можете поддержать проект и зарегистрироваться у наших партнеров - онлайн-стратегия MyLands. При регистрации в игре Вы получите код, который сможете активировать после регистрации на pirat.ca и получить 1000 дублонов.

Ваш код:
ea554e7ed3eacceeae87a8b30a9de3f086c18a84
 
     

Делай ноги 2 / Happy Feet Two (Джордж Миллер / George Miller) [2011 г., мультфильм, комедия, семейный, музыка, HDRip-AVC] Dub (Лицензия) [internal release]

Ответить на тему
 
Автор
Сообщение

Пост 27-Фев-2012 02:09

[Q] 

zyyx

--Делай ноги 2 / Happy Feet Two
«Раз, два, три... Антарктида, жги!»
-- Год выпуска: 2011
Мировая премьера: 17 ноября 2011
Российская премьера: 1 декабря 2011, «Каро-Премьер»
Дата выхода DVD: 5 апреля 2012, «CP-Digital»
Дата выхода Blu-Ray: 5 апреля 2012, «CP-Digital»
Производство: Австралия
Жанр: мультфильм, комедия, семейный, музыка
Продолжительность: 01:39:30
Перевод: Профессиональный (полное дублирование) [Лицензия]
Субтитры: отсутствуют
Режиссер: Джордж Миллер / George Miller
В ролях
Элайджа Вуд, Робин Уильямс, Хэнк Азария, Пинк, Брэд Питт, Мэтт Дэймон, София Вергара, Карлос Алазраки, Ломбардо Бойяр, Джефф Гарсиа
Описание
Неутомимый пингвин Мамбл, некогда покоривший своим блестящим танцорским талантом целое племя императорских пингвинов, стал отцом. Его малыш — Эрик, в точности такой же свободолюбивый и независимый, как и папа, но в своих амбициях и авантюрах, несмотря на свой юный возраст, уже способен дать хорошую фору отцу и всем окружающим.
Кумиром малыша становится Могучий Свен, — пингвин, умеющий летать. Во всём следуя и подражая ему, Эрик ни в какую не собирается учиться танцевать, вопреки планам и убеждениям Мамбла. Однако, настоящие трудности и проблемы состоят в другом, и, чтобы таковые преодолеть не без успеха, Мамблу и Эрику предстоит забыть о предрассудках и разногласиях, встав на защиту общих интересов и идеалов…
Источник/Качество: HDRip-AVC | Сэмпл
Формат: MKV
Видео кодек: H.264
Аудио кодек: AC3
Видео: 1024x432, 23.976 fps, 1718 Kbps, 0.158 bit/pixel
Аудио: 48.0 KHz, 6 ch, 384 Kbps
General
Complete name : C:\Happy Feet Two.2011.HDRip-AVC.zyyx.mkv
Format : Matroska
File size : 1.46 GiB
Duration : 1h 39mn
Overall bit rate : 2 103 Kbps
Movie name : zyyx
Encoded date : UTC 2012-02-26 21:51:04
Writing application : mkvmerge v4.6.0 ('Still Crazy After All These Years') сборка от Mar 13 2011 18:33:29
Writing library : libebml v1.2.0 + libmatroska v1.1.0
Video
ID : 1
Format : AVC
Format/Info : Advanced Video Codec
Format profile : [email protected]
Format settings, CABAC : Yes
Format settings, ReFrames : 16 frames
Muxing mode : Container [email protected]
Codec ID : V_MPEG4/ISO/AVC
Duration : 1h 39mn
Bit rate : 1 678 Kbps
Nominal bit rate : 1 718 Kbps
Width : 1 024 pixels
Height : 432 pixels
Display aspect ratio : 2.35:1
Frame rate : 23.976 fps
Resolution : 24 bits
Colorimetry : 4:2:0
Scan type : Progressive
Bits/(Pixel*Frame) : 0.158
Stream size : 1.16 GiB (80%)
Writing library : x264 core 114 r1924 08d04a4
Audio
ID : 2
Format : AC-3
Format/Info : Audio Coding 3
Codec ID : A_AC3
Duration : 1h 39mn
Bit rate mode : Constant
Bit rate : 384 Kbps
Channel(s) : 6 channels
Channel positions : Front: L C R, Surround: L R, LFE
Sampling rate : 48.0 KHz
Stream size : 273 MiB (18%)






Download / Скачать

Хотите скачать бесплатно? Зарегистрируйтесь на сайте (ссылка на регистрацию). Pirat.ca - самый быстрый торрент трекер в рунете!

Как скачивать  ·   Что такое торрент  ·   Рейтинг и ограничения



Последний раз редактировалось: zyyx (2012-02-27 08:23), всего редактировалось 1 раз

Пост 27-Фев-2012 08:37 (спустя 6 часов)

Топик был перенесен из форума Мультипликация в форум Новинки (HD|DVD|BD|TV|SAT|PDTV| - Rips)

ara1205
 

bopoh1989

Штурман

Пост 27-Фев-2012 11:48 (спустя 9 часов)

[Q] 

Спасибо,качаЮ!

_________________
[Профиль]  [ЛС] 

KIRST

Корсар

Пост 27-Фев-2012 11:55 (спустя 7 минут)

[Q] 

[Профиль]  [ЛС] 

buba-79

Флибустьер

Пост 27-Фев-2012 16:02 (спустя 4 часа)

[Q] 

[Профиль]  [ЛС] 

bopoh1989

Штурман

Пост 27-Фев-2012 22:49 (спустя 6 часов)

[Q] 

А что такое??? Почему с раздачи все ушли?

_________________
[Профиль]  [ЛС] 

wirtual

Гроза морей

Пост 29-Фев-2012 22:18 (спустя 1 день 23 часа)

[Q] 

как мульт, кто смотрел ?

_________________
не будешь делиться - останешься одноклеточным
[Профиль]  [ЛС] 

Пост 29-Мар-2012 14:48 (спустя 28 дней)

Топик был перенесен из форума Новинки (HD|DVD|BD|TV|SAT|PDTV| - Rips) в форум Зарубежные полнометражные мультфильмы

ara1205
 

Babkin

Штурман

Пост 16-Июн-2012 17:31 (спустя 3 месяца 15 дней)

[Q] 

Классный мульт)
[Профиль]  [ЛС] 
Показать сообщения:    
Ответить на тему

Текущее время: Сегодня 12:09

Часовой пояс: GMT + 4



Вы не можете начинать темы
Вы не можете отвечать на сообщения
Вы не можете редактировать свои сообщения
Вы не можете удалять свои сообщения
Вы не можете голосовать в опросах
Вы не можете прикреплять файлы к сообщениям
Вы не можете скачивать файлы

▼ Вниз