ML
     
  Уважаемый Гость!
Вы можете поддержать проект и зарегистрироваться у наших партнеров - онлайн-стратегия MyLands. При регистрации в игре Вы получите код, который сможете активировать после регистрации на pirat.ca и получить 1000 дублонов.

Ваш код:
0af2e2107bc9b5dd5ac2c09f9fc25e1a77c43887
 
     

Приключения Тинтина: Тайна Единорога / The Adventures of Tintin [2011] (Стивен Спилберг / Steven Spielberg) (мультфильм, боевик, детектив, приключения) [BDRip-AVC] (Лицензия)

Ответить на тему
 
Автор
Сообщение

Пост 27-Фев-2012 06:38

[Q] 

RaSSeLBeatZ

Легенда

Приключения Тинтина: Тайна Единорога-The Adventures of Tintin«This year, discover how far adventure will take you.»-
  • Дата выпуска: 2011
  • Жанр: мультфильм, боевик, детектив, приключения
  • Страна: США , Новая Зеландия
  • Продолжительность: 01:46:52
  • Перевод:
    • Профессиональный (дублированный) [Лицензия]
    • Оригинал [Лицензия]
  • Режиссер: Стивен Спилберг / Steven Spielberg
  • Роли дублировали:
      Тинтин - Джейми Белл / Филипп Бледный
      Капитан Хаддок - Энди Серкис / Сергей Чихачев
      Ракхам - Дэниэл Крэйг / Никита Прозоровский
      Томпсон - Саймон Пегг / Александр Новиков
      Пилот - Кэри Элвис / Пётр Иващенко
      Силк - Тоби Джонс /- Олег Форостенко
      Томсон - Ник Фрост / Андрей Чубченко
      Барнаби Доус - Джо Старр / Михаил Георгиу
      Том - Маккензи Крук / Даниил Щебланов
      Лейтенант де Курт - Тони Карран / Илья Исаев
      Аллан - Дэниэл Мейс / Вадим Медведев
-Главный герой — молодой газетный репортёр Тинтин. Благодаря своей профессии он путешествует по всему миру и становится участником увлекательных приключений.-
  • Качество: BDRip-AVC
  • Формат:MKV
  • Видео кодек:h.264
  • Аудио кодек:AC3
  • Видео:x.264 / 1152x490 / 2 469 Kbps / 2.35:1 / [email protected]
  • Аудио 1 :Русский дубляж : 48 kHz, AC3, 3/2 (L,C,R,l,r) + LFE ch, ~448.00 kbps avg
  • Аудио 2 :Оригинал : 48 kHz, AC3, 3/2 (L,C,R,l,r) + LFE ch, ~448.00 kbps avg
  • Субтитры:русские, английские
- , , -

Общее
Уникальный идентификатор : 188521136955029701248755664594216708548 (0x8DD3D9AC06B6B0D7B5D3937B55A069C4)
Полное имя : D:\L\Prikluchenia.Tintina.Taina.Edinotoga.2011mkv
Формат : Matroska
Версия формата : Version 2
Размер файла : 2,51 Гбайт
Продолжительность : 1 ч. 46 м.
Общий поток : 3366 Кбит/сек
Дата кодирования : UTC 2012-02-26 16:54:08
Программа кодирования : mkvmerge v3.2.0 ('Beginnings') built on Feb 12 2010 16:46:17
Библиотека кодирования : libebml v0.7.9 + libmatroska v0.8.1
Видео
Идентификатор : 1
Формат : AVC
Формат/Информация : Advanced Video Codec
Профиль формата : [email protected]
Параметр CABAC формата : Да
Параметр ReFrames формата : 10 кадров
Идентификатор кодека : V_MPEG4/ISO/AVC
Продолжительность : 1 ч. 46 м.
Битрейт : 2469 Кбит/сек
Ширина : 1152 пикселя
Высота : 490 пикселей
Соотношение сторон : 2,35:1
Частота кадров : 23,976 кадра/сек
Цветовое пространство : YUV
Субдискретизация насыщенности : 4:2:0
Битовая глубина : 8 бит
Тип развёртки : Прогрессивная
Бит/(Пиксели*Кадры) : 0.182
Размер потока : 1,79 Гбайт (71%)
Библиотека кодирования : x264 core 120 r2164 da19765
Настройки программы : cabac=1 / ref=10 / deblock=1:1:1 / analyse=0x3:0x113 / me=umh / subme=10 / psy=1 / psy_rd=0.95:0.05 / mixed_ref=1 / me_range=32 / chroma_me=1 / trellis=2 / 8x8dct=1 / cqm=0 / deadzone=21,11 / fast_pskip=0 / chroma_qp_offset=-3 / threads=6 / sliced_threads=0 / nr=0 / decimate=1 / interlaced=0 / bluray_compat=0 / constrained_intra=0 / bframes=8 / b_pyramid=2 / b_adapt=1 / b_bias=0 / direct=1 / weightb=1 / open_gop=0 / weightp=2 / keyint=240 / keyint_min=22 / scenecut=40 / intra_refresh=0 / rc=2pass / mbtree=0 / bitrate=2469 / ratetol=1.0 / qcomp=0.70 / qpmin=10 / qpmax=61 / qpstep=4 / cplxblur=20.0 / qblur=0.5 / ip_ratio=1.40 / pb_ratio=1.30 / aq=2:0.70
Язык : English
Default : Нет
Forced : Нет
Аудио #1
Идентификатор : 2
Формат : AC-3
Формат/Информация : Audio Coding 3
Расширение режима : CM (complete main)
Идентификатор кодека : A_AC3
Продолжительность : 1 ч. 46 м.
Вид битрейта : Постоянный
Битрейт : 448 Кбит/сек
Каналы : 6 каналов
Расположение каналов : Front: L C R, Side: L R, LFE
Частота : 48,0 КГц
Битовая глубина : 16 бит
Метод сжатия : С потерями
Размер потока : 342 Мбайт (13%)
Заголовок : DUB
Язык : Russian
Default : Да
Forced : Нет
Аудио #2
Идентификатор : 3
Формат : AC-3
Формат/Информация : Audio Coding 3
Расширение режима : CM (complete main)
Идентификатор кодека : A_AC3
Продолжительность : 1 ч. 46 м.
Вид битрейта : Постоянный
Битрейт : 448 Кбит/сек
Каналы : 6 каналов
Расположение каналов : Front: L C R, Side: L R, LFE
Частота : 48,0 КГц
Битовая глубина : 16 бит
Метод сжатия : С потерями
Размер потока : 342 Мбайт (13%)
Заголовок : Original
Язык : English
Default : Нет
Forced : Нет
Текст #1
Идентификатор : 4
Формат : UTF-8
Идентификатор кодека : S_TEXT/UTF8
Идентификатор кодека/Информация : UTF-8 Plain Text
Заголовок : Rus
Язык : Russian
Default : Да
Forced : Нет
Текст #2
Идентификатор : 5
Формат : UTF-8
Идентификатор кодека : S_TEXT/UTF8
Идентификатор кодека/Информация : UTF-8 Plain Text
Заголовок : Eng
Язык : English
Default : Нет
Forced : Нет
-
-
Download / Скачать

Хотите скачать бесплатно? Зарегистрируйтесь на сайте (ссылка на регистрацию). Pirat.ca - самый быстрый торрент трекер в рунете!

Как скачивать  ·   Что такое торрент  ·   Рейтинг и ограничения

Пост 27-Фев-2012 08:59 (спустя 2 часа 21 минута)

Топик был перенесен из форума Художественные фильмы (Зарубежное кино) в форум Новинки (HD|DVD|BD|TV|SAT|PDTV| - Rips)

Skinwalker
 

Алёха

Флибустьер

Пост 27-Фев-2012 14:22 (спустя 7 часов)

[Q] 

СПАСИБО!
[Профиль]  [ЛС] 

KIRST

Корсар

Пост 27-Фев-2012 15:04 (спустя 42 минуты)

[Q] 

Спасибо.
[Профиль]  [ЛС] 

xxxLOGICxxx

Корсар

Пост 27-Фев-2012 15:14 (спустя 9 минут)

[Q] 

Огромное По скринам видно что мульт хорош.
[Профиль]  [ЛС] 

dp

Корсар

Пост 27-Фев-2012 21:17 (спустя 6 часов)

[Q] 

спасибо

_________________
Мог стать отличным пианистом, а стал поскудным программистом
[Профиль]  [ЛС] 

Hugin

Морской Волк

163

Пост 27-Фев-2012 21:28 (спустя 10 минут)

[Q] 

[Профиль]  [ЛС] 

alchi

Лоцман

Пост 27-Фев-2012 21:56 (спустя 28 минут)

[Q] 

Danke schön
[Профиль]  [ЛС] 

dp

Корсар

Пост 28-Фев-2012 09:15 (спустя 11 часов)

[Q] 

графика в мультике чума

_________________
Мог стать отличным пианистом, а стал поскудным программистом
[Профиль]  [ЛС] 

tu6enka

Флибустьер

Пост 29-Фев-2012 20:29 (спустя 1 день 11 часов)

[Q] 

[Профиль]  [ЛС] 

kosmo72rus

Корсар

Пост 29-Фев-2012 22:52 (спустя 2 часа 22 минуты)

[Q] 

Сейчас заценю

_________________
[Профиль]  [ЛС] 

Серегазмей

Корсар

186

Пост 01-Мар-2012 03:11 (спустя 4 часа)

[Q] 

Скучноватый мульт, мне не понравился, слишком много серьезных атмосферных диалогов для мультфильма. А графика реально отменная, видно, что поработали с душой, прорисовка персонажей просто поражает мелкими деталями внешности. Если издалека смотреть на картинку, то может показаться, что это вообще фильм.

_________________
[Профиль]  [ЛС] 

strikeF

Корсар

Пост 02-Мар-2012 00:43 (спустя 21 час)

[Q] 

[Профиль]  [ЛС] 

Mormynt

Морской Волк

Пост 02-Мар-2012 18:47 (спустя 18 часов)

[Q] 

Игра хорошая, посмотрим как мульт

_________________
Все, что в жизни я трачу на себя - пропадает бесследно, все, что раздаю другим, остается со мной!!!
[Профиль]  [ЛС] 

savatey

Корсар

Пост 02-Мар-2012 18:51 (спустя 3 минуты)

[Q] 

Мульт очень понравился ! Спасибо ! И продолжение должно быть

_________________
[Профиль]  [ЛС] 

V.Spectre

Морской Волк

Пост 02-Мар-2012 20:34 (спустя 1 час 42 минуты)

[Q] 


Хороший мульт. Рекомендую. Отличная прорисовка персонажей.
[Профиль]  [ЛС] 

boingboing2

Шкипер

Пост 03-Мар-2012 23:49 (спустя 1 день 3 часа)

[Q] 

Спасибо, долго ждал в качестве!
[Профиль]  [ЛС] 

IgorWOO

Корсар

Пост 06-Мар-2012 22:08 (спустя 2 дня 22 часа)

[Q] 

Бред!! Зря потрачены 2 часа жизни)
[Профиль]  [ЛС] 

Calvinman

Шкипер

Пост 09-Мар-2012 15:00 (спустя 2 дня 16 часов)

[Q] 

Спасибо,посмотрю...
[Профиль]  [ЛС] 

[email protected]

Морской Волк

Пост 09-Мар-2012 16:08 (спустя 1 час 8 минут)

[Q] 

[Профиль]  [ЛС] 

ccat

Штурман

Пост 26-Мар-2012 22:48 (спустя 17 дней)

[Q] 

[Профиль]  [ЛС] 

broas

Штурман

Пост 27-Мар-2012 07:47 (спустя 8 часов)

[Q] 


_________________
[Профиль]  [ЛС] 

Пост 29-Мар-2012 13:50 (спустя 2 дня 6 часов)

Топик был перенесен из форума Новинки (HD|DVD|BD|TV|SAT|PDTV| - Rips) в форум Зарубежные полнометражные мультфильмы

ara1205
 

Old Bestof

Корсар

Пост 06-Апр-2012 12:15 (спустя 10 дней)

[Q] 

Спасибо, классный (мульт)фильм
[Профиль]  [ЛС] 

Filimonia

Корсар

Пост 07-Апр-2012 16:17 (спустя 1 день 4 часа)

[Q] 

Спасибо! Интересный мульт.
[Профиль]  [ЛС] 
Показать сообщения:    
Ответить на тему

Текущее время: Сегодня 00:05

Часовой пояс: GMT + 4



Вы не можете начинать темы
Вы не можете отвечать на сообщения
Вы не можете редактировать свои сообщения
Вы не можете удалять свои сообщения
Вы не можете голосовать в опросах
Вы не можете прикреплять файлы к сообщениям
Вы не можете скачивать файлы

▼ Вниз