ML
     
  Уважаемый Гость!
Вы можете поддержать проект и зарегистрироваться у наших партнеров - онлайн-стратегия MyLands. При регистрации в игре Вы получите код, который сможете активировать после регистрации на pirat.ca и получить 1000 дублонов.

Ваш код:
6f9ab67d502902cc72a06c406977ddb589b7f39d
 
     

Делай ноги 2 / Happy Feet Two (Джордж Миллер / George Miller) [2011 г., мультфильм, комедия, семейный, музыка, BDRip-AVC] Dub [Лицензия]

Ответить на тему
 
Автор
Сообщение

Пост 27-Фев-2012 13:17

[Q] 

Muka1

Шкипер

Делай ноги 2 / Happy Feet Two «Раз, два, три... Антарктида, жги!» Информация о фильме
Год выпуска: 2011
Мировая премьера: 17 ноября 2011
Российская премьера: 1 декабря 2011, «Каро-Премьер»
Производство: Австралия, Warner Bros. Pictures
Жанр: мультфильм, комедия, семейный, музыка
Продолжительность: 01:39:30
Перевод: Дублированный [Лицензия]
Субтитры: отсутствуют
Режиссер: Джордж Миллер / George Miller
В ролях
Элайджа Вуд, Робин Уильямс, Хэнк Азария, Пинк, Брэд Питт, Мэтт Дэймон, София Вергара, Карлос Алазраки, Ломбардо Бойяр, Джефф Гарсиа и др.

Описание
Неутомимый пингвин Мамбл, некогда покоривший своим блестящим танцорским талантом целое племя императорских пингвинов, стал отцом. Его малыш — Эрик, в точности такой же свободолюбивый и независимый, как и папа, но в своих амбициях и авантюрах, несмотря на свой юный возраст, уже способен дать хорошую фору отцу и всем окружающим.

Источник/Качество: BDRip
Формат: MKV
Видео кодек: H.264
Аудио кодек: AC3
Видео: H.264, 1056x448 (2,35:1), 23,976 кадр/сек, 2240 Кбит/сек, 0.197 bit/pixel
Аудио 1: 48,0 КГц, AC3, 3/2 (L,C,R,l,r) + LFE ch, 448 Кбит/сек - Русский
Аудио 2: 48,0 КГц, AC3, 3/2 (L,C,R,l,r) + LFE ch, 448 Кбит/сек - Английский
General
Unique ID : 171162238339965420547577934236172881400 (0x80C4A5E46C9FEA5290450ED2B8CB0DF8)
Complete name : C:\Users\U\Downloads\Делай ноги 2.2011.D.BDRip.x264.mkv.!ut
Format : Matroska
File size : 2.18 GiB
Duration : 1h 39mn
Overall bit rate : 3 137 Kbps
Encoded date : UTC 2012-02-26 17:55:04
Writing application : mkvmerge v5.2.1 ('A Far Off Place') built on Feb 6 2012 10:08:15
Writing library : libebml v1.2.3 + libmatroska v1.3.0
Video
ID : 1
Format : AVC
Format/Info : Advanced Video Codec
Format profile : [email protected]
Format settings, CABAC : Yes
Format settings, ReFrames : 11 frames
Codec ID : V_MPEG4/ISO/AVC
Duration : 1h 39mn
Bit rate : 2 240 Kbps
Width : 1 056 pixels
Height : 448 pixels
Display aspect ratio : 2.35:1
Frame rate mode : Variable
Frame rate : 23.976 fps
Color space : YUV
Chroma subsampling : 4:2:0
Bit depth : 8 bits
Scan type : Progressive
Bits/(Pixel*Frame) : 0.197
Stream size : 1.51 GiB (69%)
Title : Delaj.Nogi.2.2011.BDRip.x264.potroks
Writing library : x264 core 116 r2019M 9cc407d
Encoding settings : cabac=1 / ref=12 / deblock=1:-2:-1 / analyse=0x3:0x133 / me=umh / subme=9 / psy=1 / psy_rd=1.00:0.00 / mixed_ref=1 / me_range=40 / chroma_me=1 / trellis=1 / 8x8dct=1 / cqm=0 / deadzone=21,15 / fast_pskip=0 / chroma_qp_offset=-2 / threads=8 / sliced_threads=0 / nr=0 / decimate=1 / interlaced=0 / bluray_compat=0 / constrained_intra=0 / bframes=14 / b_pyramid=1 / b_adapt=2 / b_bias=0 / direct=3 / weightb=1 / open_gop=0 / weightp=2 / keyint=230 / keyint_min=23 / scenecut=40 / intra_refresh=0 / rc_lookahead=100 / rc=2pass / mbtree=1 / bitrate=2240 / ratetol=1.0 / qcomp=0.60 / qpmin=10 / qpmax=51 / qpstep=4 / cplxblur=20.0 / qblur=0.5 / ip_ratio=1.37 / aq=1:1.20
Language : English
Audio #1
ID : 2
Format : AC-3
Format/Info : Audio Coding 3
Mode extension : CM (complete main)
Codec ID : A_AC3
Duration : 1h 39mn
Bit rate mode : Constant
Bit rate : 448 Kbps
Channel(s) : 6 channels
Channel positions : Front: L C R, Side: L R, LFE
Sampling rate : 48.0 KHz
Bit depth : 16 bits
Compression mode : Lossy
Stream size : 319 MiB (14%)
Title : Dub [AC3, 5.1 ch., 448 kbps]
Language : Russian
Audio #2
ID : 3
Format : AC-3
Format/Info : Audio Coding 3
Mode extension : CM (complete main)
Codec ID : A_AC3
Duration : 1h 39mn
Bit rate mode : Constant
Bit rate : 448 Kbps
Channel(s) : 6 channels
Channel positions : Front: L C R, Side: L R, LFE
Sampling rate : 48.0 KHz
Bit depth : 16 bits
Compression mode : Lossy
Stream size : 319 MiB (14%)
Title : Original [AC3, 5.1 ch., 448 kbps]
Language : English
Download / Скачать

Хотите скачать бесплатно? Зарегистрируйтесь на сайте (ссылка на регистрацию). Pirat.ca - самый быстрый торрент трекер в рунете!

Как скачивать  ·   Что такое торрент  ·   Рейтинг и ограничения



Последний раз редактировалось: Muka1 (2012-02-27 13:34), всего редактировалось 1 раз

SAva_red@

Корсар

Пост 27-Фев-2012 23:20 (спустя 10 часов)

[Q] 

[Профиль]  [ЛС] 

KRu

Лоцман

Пост 28-Фев-2012 00:12 (спустя 51 минута)

[Q] 

[Профиль]  [ЛС] 

bigden1974

Шкипер

Пост 28-Фев-2012 07:04 (спустя 6 часов)

[Q] 

наконец-то
[Профиль]  [ЛС] 

ursus

Морской Волк

Пост 28-Фев-2012 15:52 (спустя 8 часов)

[Q] 

[Профиль]  [ЛС] 

SaNyABA89

Морской Волк

Пост 28-Фев-2012 22:00 (спустя 6 часов)

[Q] 

спасибо

_________________
Талантам нужно помогать, бездарности пробьются сами!
[Профиль]  [ЛС] 

wirtual

Гроза морей

Пост 29-Фев-2012 22:18 (спустя 1 день)

[Q] 

как мульт ?

_________________
не будешь делиться - останешься одноклеточным
[Профиль]  [ЛС] 

strikeF

Корсар

Пост 02-Мар-2012 00:41 (спустя 1 день 2 часа)

[Q] 

[Профиль]  [ЛС] 

Пост 23-Апр-2012 13:22 (спустя 1 месяц 21 день)

Топик был перенесен из форума Мультипликация в форум Зарубежные полнометражные мультфильмы

zyyx
 

Ника-Кика

Шкипер

Пост 28-Апр-2012 10:28 (спустя 1 месяц 26 дней)

[Q] 

Мультик - бэнч! дети рады...
[Профиль]  [ЛС] 

CHARLI2236

1089

Пост 27-Мар-2013 04:45 (спустя 10 месяцев 28 дней)

[Q] 

спасибо

_________________
[Профиль]  [ЛС] 
Показать сообщения:    
Ответить на тему

Текущее время: Сегодня 16:29

Часовой пояс: GMT + 4



Вы не можете начинать темы
Вы не можете отвечать на сообщения
Вы не можете редактировать свои сообщения
Вы не можете удалять свои сообщения
Вы не можете голосовать в опросах
Вы не можете прикреплять файлы к сообщениям
Вы не можете скачивать файлы

▼ Вниз