ML
     
  Уважаемый Гость!
Вы можете поддержать проект и зарегистрироваться у наших партнеров - онлайн-стратегия MyLands. При регистрации в игре Вы получите код, который сможете активировать после регистрации на pirat.ca и получить 1000 дублонов.

Ваш код:
8b752b428cf60a012c159dcae592cd1392170115
 
     

Аладдин / Aladdin (Ron Clements, John Musker) [1992 г., Мультфильм,комедия, DVDRip] Dub

Ответить на тему
 
Автор
Сообщение

Пост 05-Мар-2012 01:41

[Q] 

IVAN_WILD

Корсар

Аладдин / Aladdin
Год выпуска: 1992
Мировая премьера: 11 ноября 1992
Российская премьера: 11 ноября 1992
Дата выхода DVD: 4 марта 2010
Производство: США
Жанр: Мультфильм,комедия
Продолжительность: 01.26.00
Перевод: Профессиональный (полное дублирование) [Андрей Кузнецов Геннадий Богачёв Евгения Игумнова Вадим Никитин Андрей Машков]
Субтитры: отсутствуют
Режиссер: Ron Clements, John Musker
В ролях
Scott Weinger,Robin Williams,Linda Larkin,Jonathan Freeman,Frank Welker,Gilbert Gottfried,Douglas Seale, Bruce Adler,Brad Kane,Lea Salonga
Описание
В славном граде Аграба живет Аладдин, веселый воришка с золотым сердцем. Живет и не знает, что вскоре его ждет величайшее приключение в жизни. Ведь только с его помощью черный маг Джафар может овладеть невероятным сокровищем — лампой, в которой заключен исполняющий желания могущественный Джинн. И только хитроумие, смекалка и доброта Аладдина и его друзей — обезьянки Абу, принцессы Джасмин и самого Джинна способны помешать Джафару завладеть лампой и захватить власть над миром…
IMDB , КиноПоиск
Источник/Качество: DVDRip
Формат: AVI
Видео кодек: XviD
Аудио кодек: AC3
Видео: 720*432, 25 кадр/сек, 1809 kbps, качество 0,24 b/p, 1,67:1
Аудио: AC-3 Dolby, 6 каналов, 48000 hz, 384 kbps
Сатурн, 2005 год
Номинация Лучшее DVD-издание классического фильма.
Британская академия, 1994 год
Номинация Лучшие визуальные эффекты
Лучший саундтрек.
Оскар, 1993 год
Победитель Лучшая песня — «A Whole New World»
Лучший оригинальный саундтрек
Номинация Лучший звук
Лучший монтаж звука
Лучшая песня — «Friend Like Me»
Золотой глобус, 1993 год
Победитель Лучшая песня — «A Whole New World»
Лучший саундтрек
Номинация Лучший фильм (комедия или мюзикл)
Лучшая песня — «Friend Like Me»
Лучшая песня — «Prince Ali»
Премия канала «MTV», 1993 год
Победитель Лучшая комедийная роль (Робин Уильямс)
Номинация Лучшая песня — «Whole New World»
Лучший фильм
Сатурн, 1993 год
Победитель Лучший молодой актер/актриса (Скотт Венгер)
Лучший актер второго плана (Робин Уильямс)
Лучший фэнтези-фильм
Номинация Лучшая музыка
1000 и 1 ночь
Мультфильм вышел на экраны в далеком 1992 году, когда мне едва исполнился год. Но, посмотрев его еще раз недавно, я вспомнил, каким оно было — настоящее детство.
«Аладдин», как и «Король-лев», заслуживает отдельного внимания, как нечто особенное, выходящее за рамки обыденного человеческого понимания. Трудно представить, что 17 (!!!) лет назад художники-аниматоры легко могли творить такие шедевры, почти не прибегая к компьютерным эффектам, которые повсеместно суют везде и всюду.
Мультфильм буквально пропитан сказочной атмосферой арабских сказок. И каждый персонаж на экране дополняет собой эту чудесную и волшебную картину. По сложившейся традиции Уолта Диснея в мультфильме как всегда присутствует смешной персонаж. В данном случае попугай Яго, поддерживающий наравне с Джинном задорные моменты мультфильма.
Мультфильм имеет 2 награды «Оскар». И, как в случае с «Королем-львом», одну из них получает Тим Райс за уникально проникновенную песню «A Hole New World». Очень приятно осознавать, что есть еще люди, которые способны каждый раз превосходить самих себя в плане творческого процесса.
Пожалуй, не найдется человека, который скажет, что этот мультфильм недостоин внимания, а если и найдется, то это уже не человек.
Романтика и переживания, юмор и печаль, боль утраты и радость любви — все это есть в «Аладдине». И если вы не смотрели, может, еще не поздно сесть и сделать это?
Аладдин - тот самый принц
Это щепотка моего детства, светлая, и в одно время темная в каком то смысле сказка, помню эти 2 кассеты на видео, жалко что куда то я их подевал, с этим шедевром может тягаться разве что «Король лев», эта искренность, желание научить ребенка чему то светлому, самое пристальное внимание к деталям, что не хватает современным мультфильмам, это истинная доброта..
Она западает в душу и не отпускает до гроба, это прекрасно, что я вырос на таких беспечных и добрых красках, и только те, кто по настоящему любят и ценят этот мультфильм, и есть истинное добро и ум.
E:\Аладдин.avi
General
Complete name : E:\Аладдин.avi
Format : AVI
Format/Info : Audio Video Interleave
File size : 1.33 GiB
Duration : 1h 26mn
Overall bit rate : 2 193 Kbps
Writing application : VirtualDubMod 1.5.4.1 (build 2178/release)
Writing library : VirtualDubMod build 2178/release
Video #0
ID : 0
Format : MPEG-4 Visual
Format profile : Advanced [email protected]
Format settings, BVOP : 1
Format settings, QPel : No
Format settings, GMC : No warppoints
Format settings, Matrix : Custom
Codec ID : XVID
Codec ID/Hint : XviD
Duration : 1h 26mn
Bit rate : 1 802 Kbps
Width : 720 pixels
Height : 432 pixels
Display aspect ratio : 1.667
Frame rate : 25.000 fps
Color space : YUV
Chroma subsampling : 4:2:0
Bit depth : 8 bits
Scan type : Progressive
Compression mode : Lossy
Bits/(Pixel*Frame) : 0.232
Stream size : 1.09 GiB (82%)
Writing library : XviD 1.2.0.dev47 (UTC 2006-11-01)
Audio #1
ID : 1
Format : AC-3
Format/Info : Audio Coding 3
Mode extension : CM (complete main)
Codec ID : 2000
Duration : 1h 26mn
Bit rate mode : Constant
Bit rate : 384 Kbps
Channel(s) : 6 channels
Channel positions : Front: L C R, Side: L R, LFE
Sampling rate : 48.0 KHz
Bit depth : 16 bits
Compression mode : Lossy
Stream size : 238 MiB (18%)
Alignment : Split accross interleaves
Interleave, duration : 96 ms (2.40 video frames)
Interleave, preload duration : 96 ms
Language : Russian
Download / Скачать

Хотите скачать бесплатно? Зарегистрируйтесь на сайте (ссылка на регистрацию). Pirat.ca - самый быстрый торрент трекер в рунете!

Как скачивать  ·   Что такое торрент  ·   Рейтинг и ограничения



Последний раз редактировалось: IVAN_WILD (2012-03-05 16:46), всего редактировалось 5 раз(а)

Пост 05-Мар-2012 09:27 (спустя 7 часов)

Топик был перенесен из форума Мультипликация в форум Зарубежные полнометражные мультфильмы

Muka1
 

yv6wB9G19oy1

Морской Волк

Пост 06-Мар-2012 19:56 (спустя 1 день 18 часов)

[Q] 


_________________
[Профиль]  [ЛС] 

Воффка

Морской Волк

Пост 17-Мар-2012 09:49 (спустя 10 дней)

[Q] 

Спасибо. Красивый мульт

_________________
-= Водка, шлюхи, Death Metal!!!=-
[Профиль]  [ЛС] 

Nemo

Шкипер

Пост 17-Мар-2012 11:13 (спустя 1 час 24 минуты)

[Q] 

Хороший мультфильм!!!
[Профиль]  [ЛС] 

ku6opr

Морской Волк

184

Пост 03-Май-2013 18:33 (спустя 1 год 1 месяц)

[Q] 


_________________
[Профиль]  [ЛС] 
Показать сообщения:    
Ответить на тему

Текущее время: Сегодня 06:23

Часовой пояс: GMT + 4



Вы не можете начинать темы
Вы не можете отвечать на сообщения
Вы не можете редактировать свои сообщения
Вы не можете удалять свои сообщения
Вы не можете голосовать в опросах
Вы не можете прикреплять файлы к сообщениям
Вы не можете скачивать файлы

▼ Вниз