ML
     
  Уважаемый Гость!
Вы можете поддержать проект и зарегистрироваться у наших партнеров - онлайн-стратегия MyLands. При регистрации в игре Вы получите код, который сможете активировать после регистрации на pirat.ca и получить 1000 дублонов.

Ваш код:
34514219cfad5497a1822ecc1269bea77988f9aa
 
     

Барби Приключения Русалочки 2 / Barbie in a Mermaid Tale 2 (Уильям Лау / William Lau ) [2012 г., фэнтези, приключения, семейный, DVDRip] MVO

Ответить на тему
 
Автор
Сообщение

Пост 10-Мар-2012 15:30

[Q] 

Sirota

Легенда

Барби Приключения Русалочки 2 / Barbie in a Mermaid Tale 2 Год выпуска: 2012
Мировая премьера: 6 марта 2012. Канада
Российская премьера: 15 марта 2012
Дата выхода DVD: 15 марта 2012, «Двадцатый Век Фокс СНГ»
Производство: США, Канада / Rainmaker Entertainment
Жанр: фэнтези, приключения, семейный
Продолжительность: 01:12:56
Перевод: Профессиональный (многоголосый, закадровый)
Субтитры: отсутствуют
Режиссер: Уильям Лау / William Lau
В ролях
Барби
Описание
Барби возвращается в роли самой стильной и очаровательной чемпионки по серфингу Мерлии, которая является принцессой русалкой чудесного подводного мира Океания. В новой истории Мерлия отправляется в Австралию, чтобы принять участие в мировом чемпионате по серфингу. Но когда жестокая Эрис сбегает из водоворота с планами вновь править троном Океании, Мерлия и ее подводные друзья отправляются остановить ее…
Сэмпл , IMDB , КиноПоиск
Источник/Качество: DVDRip
Формат: AVI
Видео кодек: XviD
Аудио кодек: AC3
Видео: 720x400 (1.80:1), 29.970 fps, XviD MPEG-4 ~2289 kbps avg, 0.27 bit/pixel
Аудио: 48 kHz, AC3 Dolby Digital, 3/2 (L,C,R,l,r) + LFE ch, ~384.00 kbps avg
General
Format : AVI
Format/Info : Audio Video Interleave
File size : 1.37 GiB
Duration : 1h 12mn
Overall bit rate : 2 685 Kbps
Writing application : VirtualDubMod 1.5.10.2 (build 2540/release)
Writing library : VirtualDubMod build 2540/release
Video #0
ID : 0
Format : MPEG-4 Visual
Format profile : [email protected]
Format settings, BVOP : Yes
Format settings, QPel : No
Format settings, GMC : No warppoints
Format settings, Matrix : Default (H.263)
Muxing mode : Packed bitstream
Codec ID : XVID
Codec ID/Hint : XviD
Duration : 1h 12mn
Bit rate : 2 290 Kbps
Width : 720 pixels
Height : 400 pixels
Display aspect ratio : 16:9
Frame rate : 29.970 fps
Resolution : 24 bits
Colorimetry : 4:2:0
Scan type : Progressive
Bits/(Pixel*Frame) : 0.265
Stream size : 1.17 GiB (85%)
Writing library : XviD 62
Audio #1
ID : 1
Format : AC-3
Format/Info : Audio Coding 3
Codec ID : 2000
Duration : 1h 12mn
Bit rate mode : Constant
Bit rate : 384 Kbps
Channel(s) : 6 channels
Channel positions : Front: L C R, Surround: L R, LFE
Sampling rate : 48.0 KHz
Stream size : 200 MiB (14%)
Alignment : Split accross interleaves
Interleave, duration : 33 ms (1.00 video frame)
Interleave, preload duration : 500 ms
Download / Скачать

Хотите скачать бесплатно? Зарегистрируйтесь на сайте (ссылка на регистрацию). Pirat.ca - самый быстрый торрент трекер в рунете!

Как скачивать  ·   Что такое торрент  ·   Рейтинг и ограничения



Последний раз редактировалось: Sirota (2012-03-10 16:05), всего редактировалось 3 раз(а)

Muka1

Шкипер

6990

Пост 10-Мар-2012 15:37 (спустя 7 минут)

[Q] 

...

_________________
[Профиль]  [ЛС] 

Пост 10-Мар-2012 15:49 (спустя 12 минут)

Топик был перенесен из форума Мультипликация в форум Новинки (HD|DVD|BD|TV|SAT|PDTV| - Rips)

Muka1
 

fighter

Штурман

Пост 10-Мар-2012 20:10 (спустя 4 часа)

[Q] 

многоголосый - это двух?
[Профиль]  [ЛС] 

dimonpa

Гроза морей

Пост 11-Мар-2012 06:29 (спустя 10 часов)

[Q] 

[Профиль]  [ЛС] 

Aleha6346

Морской Волк

428

Пост 13-Мар-2012 16:45 (спустя 2 дня 10 часов)

[Q] 

[Профиль]  [ЛС] 

Пост 15-Апр-2012 15:27 (спустя 1 месяц 1 день)

Топик был перенесен из форума Новинки (HD|DVD|BD|TV|SAT|PDTV| - Rips) в форум Зарубежные полнометражные мультфильмы

ara1205
 

CHARLI2236

1089

Пост 30-Окт-2012 12:50 (спустя 7 месяцев 16 дней)

[Q] 

спасибочки

_________________
[Профиль]  [ЛС] 
Показать сообщения:    
Ответить на тему

Текущее время: Сегодня 07:52

Часовой пояс: GMT + 4



Вы не можете начинать темы
Вы не можете отвечать на сообщения
Вы не можете редактировать свои сообщения
Вы не можете удалять свои сообщения
Вы не можете голосовать в опросах
Вы не можете прикреплять файлы к сообщениям
Вы не можете скачивать файлы

▼ Вниз