ML
     
  Уважаемый Гость!
Вы можете поддержать проект и зарегистрироваться у наших партнеров - онлайн-стратегия MyLands. При регистрации в игре Вы получите код, который сможете активировать после регистрации на pirat.ca и получить 1000 дублонов.

Ваш код:
c89b4b6523eaac3173e9a9c062ac1a19db575961
 
     

Элвин и бурундуки 3 / Alvin and the Chipmunks: Chipwrecked (Майк Митчел / Mike Mitchell) [2011 г., мультфильм, фэнтези, комедия, семейный, музыка, BDRip-AVC] Dub (Лицензия) [internal release]

Ответить на тему
 
Автор
Сообщение

Пост 13-Мар-2012 01:00

[Q] 

zyyx

--Элвин и бурундуки 3 / Alvin and the Chipmunks: Chipwrecked
«Полундра!»
-- Год выпуска: 2011
Мировая премьера: 14 декабря 2011
Российская премьера: 29 декабря 2011, «Двадцатый Век Фокс СНГ»
Дата выхода DVD: 26 января 2012, «Двадцатый Век Фокс СНГ»
Дата выхода Blu-Ray: 19 апреля 2012, «Двадцатый Век Фокс СНГ»
Производство: США
Жанр: мультфильм, фэнтези, комедия, семейный, музыка
Продолжительность: 01:27:09
Перевод: Профессиональный (полное дублирование) [Лицензия]
Субтитры: отсутствуют
Режиссер: Майк Митчел / Mike Mitchell
В ролях
Джейсон Ли, Дэвид Кросс, Дженни Слейт, Джастин Лонг, Мэттью Грей Гублер, Джесси МакКартни, Эми Полер, Анна Фэрис, Кристина Эпплгейт, Алан Тьюдик
Описание
Приключения троицы непоседливых братьев-бурундуков продолжаются! Элвин, Саймон и Теодор, а также их подруги бурундушки, просто не могут оставаться в стороне от различного рода неприятностей, сулящих им новые увлекательные приключения. Что на этот раз уготовила судьба нашим героям, и как они выпутаются из очередной передряги — вот в чём вопрос.
Источник/Качество: BDRip-AVC | Сэмпл
Формат: MKV
Видео кодек: H.264
Аудио кодек: AC3
Видео: 1008x544, 23.976 fps, 1951 Kbps, 0.145 bit/pixel
Аудио: 48.0 KHz, 6 ch, 448 Kbps
General
Complete name : D:\zyyx\Alvin and the Chipmunks Chipwrecked.2011.BDRip-AVC.zyyx.mkv
Format : Matroska
File size : 1.46 GiB
Duration : 1h 27mn
Overall bit rate : 2 399 Kbps
Movie name : Alvin and the Chipmunks: Chipwrecked 2011 - Release for zyyx
Encoded date : UTC 2012-03-12 20:30:53
Writing application : mkvmerge v4.6.0 ('Still Crazy After All These Years') сборка от Mar 13 2011 18:33:29
Writing library : libebml v1.2.0 + libmatroska v1.1.0
Video
ID : 1
Format : AVC
Format/Info : Advanced Video Codec
Format profile : [email protected]
Format settings, CABAC : Yes
Format settings, ReFrames : 16 frames
Muxing mode : Container [email protected]
Codec ID : V_MPEG4/ISO/AVC
Duration : 1h 27mn
Bit rate : 1 903 Kbps
Nominal bit rate : 1 951 Kbps
Width : 1 008 pixels
Height : 544 pixels
Display aspect ratio : 1.853
Frame rate : 23.976 fps
Resolution : 24 bits
Colorimetry : 4:2:0
Scan type : Progressive
Bits/(Pixel*Frame) : 0.145
Stream size : 1.16 GiB (79%)
Writing library : x264 core 114 r1924 08d04a4
Audio
ID : 2
Format : AC-3
Format/Info : Audio Coding 3
Codec ID : A_AC3
Duration : 1h 27mn
Bit rate mode : Constant
Bit rate : 448 Kbps
Channel(s) : 6 channels
Channel positions : Front: L C R, Surround: L R, LFE
Sampling rate : 48.0 KHz
Stream size : 279 MiB (19%)





Download / Скачать

Хотите скачать бесплатно? Зарегистрируйтесь на сайте (ссылка на регистрацию). Pirat.ca - самый быстрый торрент трекер в рунете!

Как скачивать  ·   Что такое торрент  ·   Рейтинг и ограничения

Пост 13-Мар-2012 08:16 (спустя 7 часов)

Топик был перенесен из форума Мультипликация в форум Зарубежные полнометражные мультфильмы

ThisMan
 

ksg111ban

Гроза морей

Пост 13-Мар-2012 09:39 (спустя 8 часов)

[Q] 

Прикольный мультик.

_________________
[Профиль]  [ЛС] 

Voland57

Корсар

Пост 11-Июн-2012 15:15 (спустя 2 месяца 29 дней)

[Q] 

[Профиль]  [ЛС] 

scorpi

Лоцман

Пост 10-Июл-2012 09:42 (спустя 28 дней)

[Q] 

спасибо
[Профиль]  [ЛС] 

Veyron_X

Шкипер

Пост 03-Сен-2012 21:02 (спустя 1 месяц 24 дня)

[Q] 

[Профиль]  [ЛС] 

Wolf111

57134

Пост 08-Дек-2012 16:55 (спустя 3 месяца 4 дня)

[Q] 

Помогу с раздачей
[Профиль]  [ЛС] 

лесенок

Шкипер

Пост 17-Мар-2013 20:46 (спустя 3 месяца 9 дней)

[Q] 

[Профиль]  [ЛС] 

vyacheslav

Корсар

Пост 20-Май-2014 19:16 (спустя 1 год 2 месяца)

[Q] 

Спасибо, прикольный фильм
[Профиль]  [ЛС] 
Показать сообщения:    
Ответить на тему

Текущее время: Сегодня 22:32

Часовой пояс: GMT + 4



Вы не можете начинать темы
Вы не можете отвечать на сообщения
Вы не можете редактировать свои сообщения
Вы не можете удалять свои сообщения
Вы не можете голосовать в опросах
Вы не можете прикреплять файлы к сообщениям
Вы не можете скачивать файлы

▼ Вниз