ML
     
  Уважаемый Гость!
Вы можете поддержать проект и зарегистрироваться у наших партнеров - онлайн-стратегия MyLands. При регистрации в игре Вы получите код, который сможете активировать после регистрации на pirat.ca и получить 1000 дублонов.

Ваш код:
a01a592a88af5f9996a6d1baec61b18a1769954d
 
     

Скуби-Ду! Музыка вампира / Scooby Doo! Music of the Vampire (Дэвид Блок / David Block) [2012 г., комедия, приключения, детектив, DVDRip] Dub (лицензия)

Ответить на тему
 
Автор
Сообщение

Пост 15-Мар-2012 18:23

[Q] 

Sirota

Легенда

Скуби-Ду! Музыка вампира / Scooby Doo! Music of the Vampire Год выпуска: 2012
Дата выхода DVD: 29 марта 2012, «CP-Digital»
Производство: США / Warner Brothers
Жанр: комедия, приключения, детектив
Продолжительность: 01:27:54
Перевод: Профессиональный (полное дублирование) [лицензия]
Субтитры: отсутствуют
Режиссер: Дэвид Блок / David Block
В ролях
Джефф Беннетт
Минди Кон
Джим Каммингс
Роб Полсен
Минди Стерлинг
Описание
Главный герой Скуби-Ду и его команда Шэгги, Фредди, Дафни и Велма берутся за новое дело. Но дело это не обычное, на сей раз им предстоит встреча с потусторонними существами, такими как вампиры и оборотни. Но эта отважная пятерка детективов не боится ни чего, и отправляется в самое логово злодеев…
Сэмпл , IMDB , КиноПоиск
Источник/Качество: DVDRip
Формат: AVI
Видео кодек: XviD
Аудио кодек: MP3
Видео: 640x352 (1.82:1), 25 fps, XviD MPEG-4 ~977 kbps avg, 0.17 bit/pixel
Аудио: 48 kHz, MPEG Layer 3, 2 ch, ~128.00 kbps avg
General
Format : AVI
Format/Info : Audio Video Interleave
File size : 689 MiB
Duration : 1h 27mn
Overall bit rate : 1 096 Kbps
Writing application : VirtualDubMod 1.5.10.2 (build 2542/release)
Writing library : VirtualDub build 32507/release
Video #0
ID : 0
Format : MPEG-4 Visual
Format profile : [email protected]
Format settings, BVOP : Yes
Format settings, QPel : No
Format settings, GMC : No warppoints
Format settings, Matrix : Default (H.263)
Muxing mode : Packed bitstream
Codec ID : XVID
Codec ID/Hint : XviD
Duration : 1h 27mn
Bit rate : 978 Kbps
Width : 640 pixels
Height : 352 pixels
Display aspect ratio : 16:9
Frame rate : 25.000 fps
Resolution : 24 bits
Colorimetry : 4:2:0
Scan type : Progressive
Bits/(Pixel*Frame) : 0.174
Stream size : 615 MiB (89%)
Writing library : XviD 64
Audio #1
ID : 1
Format : MPEG Audio
Format version : Version 1
Format profile : Layer 3
Codec ID : 55
Codec ID/Hint : MP3
Duration : 1h 15mn
Bit rate mode : Constant
Bit rate : 128 Kbps
Channel(s) : 2 channels
Sampling rate : 48.0 KHz
Resolution : 16 bits
Video delay : 4ms
Stream size : 68.7 MiB (10%)
Alignment : Split accross interleaves
Interleave, duration : 47 ms (1.17 video frame)
Interleave, preload duration : 500 ms
Download / Скачать

Хотите скачать бесплатно? Зарегистрируйтесь на сайте (ссылка на регистрацию). Pirat.ca - самый быстрый торрент трекер в рунете!

Как скачивать  ·   Что такое торрент  ·   Рейтинг и ограничения

Пост 15-Мар-2012 18:43 (спустя 19 минут)

Топик был перенесен из форума Мультипликация в форум Новинки (HD|DVD|BD|TV|SAT|PDTV| - Rips)

Muka1
 

xxxLOGICxxx

Корсар

Пост 15-Мар-2012 19:09 (спустя 45 минут)

[Q] 

[Профиль]  [ЛС] 

got70

Легенда

752

Пост 15-Мар-2012 21:25 (спустя 2 часа 15 минут)

[Q] 


_________________
Добро непременно победит зло!Непременно...Затем поставит на колени,и зверски УБЬЁТ!
[Профиль]  [ЛС] 

chtv

Шкипер

Пост 15-Мар-2012 23:43 (спустя 2 часа 18 минут)

[Q] 

Последний скрин финалочку запалил=)
[Профиль]  [ЛС] 

alexkalchenko

Корсар

40

Пост 16-Мар-2012 22:27 (спустя 22 часа)

[Q] 

[Профиль]  [ЛС] 

Пост 26-Апр-2012 14:40 (спустя 1 месяц 9 дней)

Топик был перенесен из форума Новинки (HD|DVD|BD|TV|SAT|PDTV| - Rips) в форум Зарубежные полнометражные мультфильмы

ara1205
 

CHARLI2236

1097

Пост 30-Окт-2012 13:34 (спустя 7 месяцев 13 дней)

[Q] 

благодарю

_________________
[Профиль]  [ЛС] 
Показать сообщения:    
Ответить на тему

Текущее время: Сегодня 09:49

Часовой пояс: GMT + 4



Вы не можете начинать темы
Вы не можете отвечать на сообщения
Вы не можете редактировать свои сообщения
Вы не можете удалять свои сообщения
Вы не можете голосовать в опросах
Вы не можете прикреплять файлы к сообщениям
Вы не можете скачивать файлы

▼ Вниз