ML
     
  Уважаемый Гость!
Вы можете поддержать проект и зарегистрироваться у наших партнеров - онлайн-стратегия MyLands. При регистрации в игре Вы получите код, который сможете активировать после регистрации на pirat.ca и получить 1000 дублонов.

Ваш код:
8b752b428cf60a012c159dcae592cd1392170115
 
     

Цирк! Цирк! Цирк! / Orla Frosnapper (Питер Додд / Dodd Peter) [2011 г., Мультфильм, Анимация, Комедия, Семейный, DVDRip] Dub (Лицензия)

Ответить на тему
 
Автор
Сообщение

Пост 15-Мар-2012 21:13

[Q] 

dimkoba

Цирк! Цирк! Цирк! / Orla Frosnapper
Год выпуска: 2011
Мировая премьера: 1 июня 2011
Российская премьера: 19 января 2012, «Кинопром»
Дата выхода DVD: 20 марта 2012, «Парадиз Видео»
Производство: Дания
Жанр: Мультфильм, Анимация, Комедия, Семейный
Продолжительность: 01:21:01
Перевод: Профессиональный (полное дублирование) [Лицензия]
Субтитры: отсутствуют
Режиссер: Питер Додд / Dodd Peter
В ролях
Николай Ли Каас, Туре Линдхардт, Николай Коперникус, Катрин Фалькенберг, Маргете Койту, Оле Теструп, Дэвид Бэйтсон, Ларс Тиесгаард, Лассе Лундерсков
Описание
В маленький город, в котором живет Виктор и его пес Хрящик, приезжает цирк. Директор цирка предлагает всем желающим выступить со своей программой, и все жители города начинают готовиться. Готовятся и Виктор с Хрящиком. Местный хулиган Фредди, по прозвищу Лягушка, обеспокоен происходящим: раньше в центре внимания города был он и его проказы, а теперь никто не обращает на него никакого внимания! Фредди решает похитить Хрящика и сам выступить на арене. Виктору и его друзьям, Якобу и Клэр, предстоят настоящие приключения! , IMDB , КиноПоискИсточник/Качество: DVDRip
Формат: AVI
Видео кодек: XviD
Аудио кодек: AC3
Видео: XviD, 720x384, 25.000 fps, ~2186 kbps avg
Аудио: AC3, 48.0 kHz, 6 ch, 384 kbps avg
Полное имя : D:\загрузка\Tsirk.Tsirk.Tsirk.[Pirat.ca].avi
Формат : AVI
Формат/Информация : Audio Video Interleave
Размер файла : 1,46 Гбайт
Продолжительность : 1 ч. 21 м.
Общий поток : 2579 Кбит/сек
Программа кодирования : VirtualDubMod 1.5.10.3 | www.virtualdub-fr.org || (build 2550/release)
Библиотека кодирования : VirtualDubMod build 2550/release
Видео
Идентификатор : 0
Формат : MPEG-4 Visual
Профиль формата : Advanced [email protected]
Параметр BVOP формата : 1
Параметр QPel формата : Нет
Параметр GMC формата : Без точки перехода
Параметр матрицы формата : Выборочная
Идентификатор кодека : XVID
Идентификатор кодека/Подсказка : XviD
Продолжительность : 1 ч. 21 м.
Битрейт : 2186 Кбит/сек
Ширина : 720 пикселей
Высота : 384 пикселя
Соотношение сторон : 1,875
Частота кадров : 25,000 кадров/сек
Цветовое пространство : YUV
Субдискретизация насыщенности : 4:2:0
Битовая глубина : 8 бит
Тип развёртки : Прогрессивная
Метод сжатия : С потерями
Бит/(Пиксели*Кадры) : 0.316
Размер потока : 1,24 Гбайт (85%)
Библиотека кодирования : XviD 1.2.1 (UTC 2008-12-04)
Аудио
Идентификатор : 1
Формат : AC-3
Формат/Информация : Audio Coding 3
Расширение режима : CM (complete main)
Идентификатор кодека : 2000
Продолжительность : 1 ч. 20 м.
Вид битрейта : Постоянный
Битрейт : 384 Кбит/сек
Каналы : 6 каналов
Расположение каналов : Front: L C R, Side: L R, LFE
Частота : 48,0 КГц
Битовая глубина : 16 бит
Метод сжатия : С потерями
Размер потока : 222 Мбайт (15%)
Выравнивание : Разделение по промежуткам
Продолжительность промежутка : 40 мс. (1,00 видеокадр)
Время предзагрузки промежутка : 500 мс.
Download / Скачать

Хотите скачать бесплатно? Зарегистрируйтесь на сайте (ссылка на регистрацию). Pirat.ca - самый быстрый торрент трекер в рунете!

Как скачивать  ·   Что такое торрент  ·   Рейтинг и ограничения



Последний раз редактировалось: dimkoba (2012-03-15 23:38), всего редактировалось 9 раз(а)

Пост 15-Мар-2012 22:05 (спустя 52 минуты)

Топик был перенесен из форума Зарубежные полнометражные мультфильмы в форум Новинки (HD|DVD|BD|TV|SAT|PDTV| - Rips)

ara1205
 

Дядя Витя

53881

Пост 15-Мар-2012 22:39 (спустя 1 час 26 минут)

[Q] 


_________________
?
[Профиль]  [ЛС] 

leonid.

Флибустьер

Пост 16-Мар-2012 02:11 (спустя 3 часа)

[Q] 

спасибо!
[Профиль]  [ЛС] 

vitrina22

3157

Пост 16-Мар-2012 06:26 (спустя 4 часа)

[Q] 

[Профиль]  [ЛС] 

dimonpa

Гроза морей

Пост 16-Мар-2012 08:11 (спустя 1 час 44 минуты)

[Q] 

[Профиль]  [ЛС] 

RYT

Морской Волк

163

Пост 16-Мар-2012 09:22 (спустя 1 час 10 минут)

[Q] 

как мульт?
[Профиль]  [ЛС] 

polozm

Легенда

Пост 16-Мар-2012 10:24 (спустя 1 час 1 минута)

[Q] 

спасибо качну

_________________
mac mini -2.0 GHz Intel Core i7/ 8 GB DDR3. /Intel HD 3000(512mb)OS X 10.9 Mavericks
[Профиль]  [ЛС] 

shteker

Морской Волк

Пост 16-Мар-2012 13:36 (спустя 3 часа)

[Q] 

Прикольный bp
[Профиль]  [ЛС] 

alexkalchenko

Корсар

40

Пост 16-Мар-2012 22:17 (спустя 8 часов)

[Q] 

[Профиль]  [ЛС] 

Nemo

Шкипер

Пост 17-Мар-2012 11:07 (спустя 12 часов)

[Q] 

[Профиль]  [ЛС] 

Aleks44

Гроза морей

Пост 17-Мар-2012 11:41 (спустя 34 минуты)

[Q] 

Мульт средний так еще дубляж расходится с действиями то звук сначала потом дубляж то наоборот сразу падает настрой смотреть такой мультик сам мульт на 5 из 10, а отстование со звуком итог 3 из 10
[Профиль]  [ЛС] 

alchi

Лоцман

Пост 17-Мар-2012 11:53 (спустя 12 минут)

[Q] 

Типично датский
[Профиль]  [ЛС] 

lexx

Корсар

129

Пост 17-Мар-2012 23:10 (спустя 11 часов)

[Q] 

[Профиль]  [ЛС] 

ivan836

Морской Волк

Пост 20-Мар-2012 23:18 (спустя 3 дня)

[Q] 

[Профиль]  [ЛС] 

briz2222

Штурман

Пост 05-Апр-2012 08:02 (спустя 15 дней)

[Q] 

спасибо,качну детям...
[Профиль]  [ЛС] 

Пост 26-Апр-2012 15:32 (спустя 21 день)

Топик был перенесен из форума Новинки (HD|DVD|BD|TV|SAT|PDTV| - Rips) в форум Зарубежные полнометражные мультфильмы

ara1205
 
Показать сообщения:    
Ответить на тему

Текущее время: Сегодня 06:24

Часовой пояс: GMT + 4



Вы не можете начинать темы
Вы не можете отвечать на сообщения
Вы не можете редактировать свои сообщения
Вы не можете удалять свои сообщения
Вы не можете голосовать в опросах
Вы не можете прикреплять файлы к сообщениям
Вы не можете скачивать файлы

▼ Вниз