ML
     
  Уважаемый Гость!
Вы можете поддержать проект и зарегистрироваться у наших партнеров - онлайн-стратегия MyLands. При регистрации в игре Вы получите код, который сможете активировать после регистрации на pirat.ca и получить 1000 дублонов.

Ваш код:
a01a592a88af5f9996a6d1baec61b18a1769954d
 
     

Облачно, возможны осадки в виде фрикаделек / Cloudy with a Chance of Meatballs (Фил Лорд, Крис Миллер/Phil Lord, Kris Miller) [2009 г., мультфильм, фэнтези, комедия, семейный, DVDRip]

Ответить на тему
 
Автор
Сообщение

Пост 30-Окт-2011 18:10

[Q] 

Dj NIKI

Флибустьер

Облачно, возможны осадки в виде фрикаделек / Cloudy with a Chance of Meatballs
Год выпуска: 2009
Страна: США
Жанр: мультфильм, фэнтези, комедия, семейный
Продолжительность: 90 мин.
Перевод: Профессиональный (многоголосый, закадровый)
Режиссер: Фил Лорд, Крис Миллер/Phil Lord, Kris Miller
В ролях: Билл Хэйдер
Анна Фэрис
Джеймс Каан
Энди Сэмберг
Брюс Кэмпбелл
Мистер Ти
Бобби Дж. Томпсон
Бенджамин Брэтт
Нил Патрик Харрис
Эл Рокер
Описание: Главный герой мультфильма — странный ученый Флинт Локвуд, который всегда хотел изобрести что-то такое, что сделает его родной городок счастливым. И вот, у него получилось! Еды теперь хватает всем, и она просто падает с неба, создавая новые пейзажи вокруг: можно любоваться закатом с живописных холмов из фруктового желе. Но иногда вкусные осадки в виде фрикаделек могут превратиться в настоящий торнадо из аппетитных, но уже опасных спагетти! Гениальному ученому и его друзьям предстоит исправить положение дел в сытом городке.
Качество: DVDRip
Формат: AVI
Видео кодек: XviD
Аудио кодек: AC3
Видео: 720x304 (2.37:1), 25 fps, XviD build 50 ~1811 kbps avg, 0.33 bit/pixel
Аудио: 48 kHz, AC3 Dolby Digital, 3/2 (L,C,R,l,r) + LFE ch, ~448 kbps
General
Complete name : D:\Видео\Фильмы\(2009) Облачно, возможны осадки...D.DVDRip.avi
Format : AVI
Format/Info : Audio Video Interleave
File size : 1.37 GiB
Duration : 1h 26mn
Overall bit rate : 2 269 Kbps
Writing application : VirtualDubMod 1.5.10.2 (build 2540/release)
Video
ID : 0
Format : MPEG-4 Visual
Format profile : Advanced [email protected]
Format settings, BVOP : Yes
Format settings, QPel : No
Format settings, GMC : No warppoints
Format settings, Matrix : Custom
Codec ID : XVID
Codec ID/Hint : XviD
Duration : 1h 26mn
Bit rate : 1 812 Kbps
Width : 720 pixels
Height : 304 pixels
Display aspect ratio : 2.35:1
Frame rate : 25.000 fps
Color space : YUV
Chroma subsampling : 4:2:0
Bit depth : 8 bits
Scan type : Progressive
Bits/(Pixel*Frame) : 0.331
Stream size : 1.09 GiB (80%)
Writing library : XviD 1.2.1 (UTC 2008-12-04)
Audio
ID : 1
Format : AC-3
Format/Info : Audio Coding 3
Mode extension : CM (complete main)
Codec ID : 2000
Duration : 1h 26mn
Bit rate mode : Constant
Bit rate : 448 Kbps
Channel(s) : 6 channels
Channel positions : Front: L C R, Side: L R, LFE
Sampling rate : 48.0 KHz
Stream size : 276 MiB (20%)
Alignment : Split accross interleaves
Interleave, duration : 40 ms (1.00 video frame)
Interleave, preload duration : 500 ms


Download / Скачать

Хотите скачать бесплатно? Зарегистрируйтесь на сайте (ссылка на регистрацию). Pirat.ca - самый быстрый торрент трекер в рунете!

Как скачивать  ·   Что такое торрент  ·   Рейтинг и ограничения



Последний раз редактировалось: Dj NIKI (2011-11-07 21:26), всего редактировалось 2 раз(а)

Пост 30-Окт-2011 19:05 (спустя 55 минут)

Топик был перенесен из форума Мультипликация в форум Зарубежные полнометражные мультфильмы

zyyx
 

yarecman

Лоцман

Пост 13-Дек-2011 00:35 (спустя 1 месяц 13 дней)

[Q] 

хороший мульт :)))
[Профиль]  [ЛС] 

CHARLI2236

1097

Пост 20-Июн-2012 10:29 (спустя 6 месяцев 7 дней)

[Q] 

благодарю

_________________
[Профиль]  [ЛС] 

White Mafia

Штурман

Пост 15-Июл-2012 22:32 (спустя 25 дней)

[Q] 


_________________
Мне не нужен арт хаус. Мне нужен космос, стрельба и сиськи.
[Профиль]  [ЛС] 

black kat

Лоцман

Пост 08-Июл-2013 14:02 (спустя 11 месяцев 23 дня)

[Q] 

СПАСИБО!!!!!!!!!!!!!!!!!!!!!
[Профиль]  [ЛС] 

sergej 1340

Морской Волк

Пост 21-Дек-2013 14:42 (спустя 5 месяцев 13 дней)

[Q] 

спасибо! Лови бочку
[Профиль]  [ЛС] 

emerica

Штурман

Пост 06-Янв-2014 12:46 (спустя 15 дней)

[Q] 

Отличный мульт.Спасибо
[Профиль]  [ЛС] 

Анна 341662

Корсар

11

Пост 17-Авг-2014 23:11 (спустя 7 месяцев 11 дней)

[Q] 

Спасибо!!!!! !COOL! !COOL!
[Профиль]  [ЛС] 
Показать сообщения:    
Ответить на тему

Текущее время: Сегодня 09:47

Часовой пояс: GMT + 4



Вы не можете начинать темы
Вы не можете отвечать на сообщения
Вы не можете редактировать свои сообщения
Вы не можете удалять свои сообщения
Вы не можете голосовать в опросах
Вы не можете прикреплять файлы к сообщениям
Вы не можете скачивать файлы

▼ Вниз