ML
     
  Уважаемый Гость!
Вы можете поддержать проект и зарегистрироваться у наших партнеров - онлайн-стратегия MyLands. При регистрации в игре Вы получите код, который сможете активировать после регистрации на pirat.ca и получить 1000 дублонов.

Ваш код:
6f9ab67d502902cc72a06c406977ddb589b7f39d
 
     

Тачки 2 / Cars 2 (Джон Лассетер, Брэд Льюис / John Lasseter, Brad Lewis) [2011 г., мультфильм, комедия, приключения, семейный, HDRip-AVC]

Ответить на тему
 
Автор
Сообщение

Пост 30-Окт-2011 18:44

[Q] 

zyyx

Тачки 2 / Cars 2
Год выпуска: 2011
Страна: США
Жанр: мультфильм, комедия, приключения, семейный
Продолжительность: 01:47:01
Перевод: Профессиональный (полное дублирование)
Режиссер: Джон Лассетер, Брэд Льюис / John Lasseter, Brad Lewis
В ролях: Оуэн Уилсон, Ларри Кейбл Гай, Майкл Кейн, Эмили Мортимер, Эдди Иззард, Джон Туртурро, Брент Мусбургер, Джо Мантенья, Томас Кречманн, Питер Джекобсон
Роли дублировали: Дмитрий Харатьян, Сергей Кузнецов, Леонид Каневский, Жанна Фриске, Леонид Ярмольник и др.
Описание: Молния МакКуин и его друг Мэтр отправляются в международное путешествие — когда МакКуин получает шанс участвовать в соревнованиях для самых быстрых машин в мире, Мировом Гран-При. Этапы этих престижных гонок заведут друзей в Токио, на набережные Парижа, на побережье Италии, и на улицы туманного Лондона.
Доп. информация: http://www.kinopoisk.ru/level/1/film/409013/
Качество: HDRip-AVC
Формат: MKV
Видео кодек: H.26x
Аудио кодек: AC3
Видео: 1056x440 (16:9), 23,976 кадр/сек, 1810 Кбит/сек, 0.116 bit/pixel
Аудио#1: AC3, 6 ch., 48 kHz, ~448.00 kbps | RUS
Аудио#2: AC3, 2 ch., 48 kHz, ~192.00 kbps | ENG
Субтитры: Английские, русские (voronine)
Общее
Уникальный идентификатор : 170240031782847516224611642964091308398 (0x801309993BAEB5619564A7B25507896E)
Полное имя : D:\pirat.ca\Tachki.2.2011.HDRip.x264.potroks.mkv
Формат : Matroska
Версия формата : Version 2
Размер файла : 1,64 Гбайт
Продолжительность : 1 ч. 47 м.
Общий поток : 2198 Кбит/сек
Название фильма : -=POTROKS=-
Дата кодирования : UTC 2011-10-16 06:42:23
Программа кодирования : mkvmerge v4.9.1 ('Ich will') сборка от Jul 11 2011 23:53:15
Библиотека кодирования : libebml v1.2.1 + libmatroska v1.1.1
Видео
Идентификатор : 1
Формат : AVC
Формат/Информация : Advanced Video Codec
Профиль формата : [email protected]
Параметр CABAC формата : Да
Параметр ReFrames формата : 11 кадров
Идентификатор кодека : V_MPEG4/ISO/AVC
Продолжительность : 1 ч. 47 м.
Битрейт : 1556 Кбит/сек
Ширина : 1056 пикселей
Высота : 440 пикселей
Соотношение сторон : 2,40:1
Режим частоты кадров : Переменный
Частота кадров : 23,976 кадра/сек
Цветовое пространство : YUV
Субдискретизация насыщенности : 4:2:0
Битовая глубина : 8 бит
Тип развёртки : Прогрессивная
Бит/(Пиксели*Кадры) : 0.140
Размер потока : 1,13 Гбайт (69%)
Библиотека кодирования : x264 core 116 r2019M 9cc407d
Настройки программы : cabac=1 / ref=12 / deblock=1:-3:-3 / analyse=0x3:0x133 / me=umh / subme=9 / psy=1 / psy_rd=1.00:0.20 / mixed_ref=1 / me_range=32 / chroma_me=1 / trellis=1 / 8x8dct=1 / cqm=0 / deadzone=21,11 / fast_pskip=1 / chroma_qp_offset=-3 / threads=8 / sliced_threads=0 / nr=0 / decimate=1 / interlaced=0 / bluray_compat=0 / constrained_intra=0 / bframes=3 / b_pyramid=1 / b_adapt=2 / b_bias=0 / direct=3 / weightb=1 / open_gop=0 / weightp=2 / keyint=230 / keyint_min=23 / scenecut=40 / intra_refresh=0 / rc_lookahead=40 / rc=2pass / mbtree=1 / bitrate=1556 / ratetol=1.0 / qcomp=0.60 / qpmin=10 / qpmax=51 / qpstep=4 / cplxblur=20.0 / qblur=0.5 / ip_ratio=1.40 / aq=1:1.00
Язык : English
Аудио #1
Идентификатор : 2
Формат : AC-3
Формат/Информация : Audio Coding 3
Расширение режима : CM (complete main)
Идентификатор кодека : A_AC3
Продолжительность : 1 ч. 47 м.
Вид битрейта : Постоянный
Битрейт : 192 Кбит/сек
Каналы : 2 канала
Расположение каналов : Front: L R
Частота : 48,0 КГц
Битовая глубина : 16 бит
Метод сжатия : С потерями
Размер потока : 147 Мбайт (9%)
Заголовок : Оригинал
Язык : English
Аудио #2
Идентификатор : 3
Формат : AC-3
Формат/Информация : Audio Coding 3
Расширение режима : CM (complete main)
Идентификатор кодека : A_AC3
Продолжительность : 1 ч. 47 м.
Вид битрейта : Постоянный
Битрейт : 448 Кбит/сек
Каналы : 6 каналов
Расположение каналов : Front: L C R, Side: L R, LFE
Частота : 48,0 КГц
Битовая глубина : 16 бит
Метод сжатия : С потерями
Размер потока : 343 Мбайт (20%)
Заголовок : Дубляж [лицензия]
Язык : Russian
Текст #1
Идентификатор : 4
Формат : UTF-8
Идентификатор кодека : S_TEXT/UTF8
Идентификатор кодека/Информация : UTF-8 Plain Text
Заголовок : voronine
Язык : Russian
Текст #2
Идентификатор : 5
Формат : UTF-8
Идентификатор кодека : S_TEXT/UTF8
Идентификатор кодека/Информация : UTF-8 Plain Text
Язык : English





Download / Скачать

Хотите скачать бесплатно? Зарегистрируйтесь на сайте (ссылка на регистрацию). Pirat.ca - самый быстрый торрент трекер в рунете!

Как скачивать  ·   Что такое торрент  ·   Рейтинг и ограничения



Последний раз редактировалось: zyyx (2011-11-06 18:57), всего редактировалось 1 раз

Пост 30-Окт-2011 19:35 (спустя 50 минут)

Топик был перенесен из форума Мультипликация в форум Новинки (BDRip/HDRip/DVDRip/DVDScr/ТС/SATRip/WP )

Sirota
 

Milord

Лоцман

Пост 11-Ноя-2011 15:47 (спустя 11 дней)

[Q] 

Спасибо!
[Профиль]  [ЛС] 

nokia_series

Корсар

Пост 11-Фев-2012 10:06 (спустя 2 месяца 29 дней)

[Q] 

Спасибо! Будет что сынишке посмотреть.... разков на 100 )))
[Профиль]  [ЛС] 

azar4

Морской Волк

Пост 11-Авг-2012 13:55 (спустя 6 месяцев)

[Q] 

Хороший мульт.
[Профиль]  [ЛС] 

des

Морской Волк

Пост 12-Янв-2013 18:05 (спустя 5 месяцев 1 день)

[Q] 

[Профиль]  [ЛС] 

дмитрий1987@mail.ru

Морской Волк

Пост 02-Окт-2013 17:45 (спустя 8 месяцев 20 дней)

[Q] 

Лови бочку Пиратка рулез!!! гого
[Профиль]  [ЛС] 

stepanof666036

Юнга

Пост 23-Июн-2015 21:45 (спустя 1 год 8 месяцев)

[Q] 

на раздаче кому надо!
[Профиль]  [ЛС] 
Показать сообщения:    
Ответить на тему

Текущее время: Сегодня 16:29

Часовой пояс: GMT + 4



Вы не можете начинать темы
Вы не можете отвечать на сообщения
Вы не можете редактировать свои сообщения
Вы не можете удалять свои сообщения
Вы не можете голосовать в опросах
Вы не можете прикреплять файлы к сообщениям
Вы не можете скачивать файлы

▼ Вниз