ML
     
  Уважаемый Гость!
Вы можете поддержать проект и зарегистрироваться у наших партнеров - онлайн-стратегия MyLands. При регистрации в игре Вы получите код, который сможете активировать после регистрации на pirat.ca и получить 1000 дублонов.

Ваш код:
fcd618d94adc1456bccbde5047c9cd0930e4ae4d
 
     

Полярный экспресс / The Polar Express (Роберт Земекис/Robert Lee Zemeckis) [2004 г., Фэнтези, приключения, семейный, мультфильм, DVDRip]

Ответить на тему
 
Автор
Сообщение

Пост 31-Окт-2011 16:12

[Q] 

ku6opr

Морской Волк

Полярный экспресс / The Polar Express
Год выпуска: 2004
Страна: США
Жанр: Фэнтези, приключения, семейный, мультфильм
Продолжительность: 01:35:46
Перевод: Профессиональный (полное дублирование)
Режиссер: Роберт Земекис/Robert Lee Zemeckis
В ролях: Том Хэнкс, Майкл Джитер, Нона Гей, Питер Сколари, Эдди Дизен, Лесли Хартер Земекис, Чарльз Флайшер, Джош Эли, Марк Мендонка, Роландас Хендрикс
Описание: Просыпайтесь, торопитесь, вас ждет самое увлекательное приключение! Вы помчитесь на сказочном поезде, как на американских горках в далекую страну Лапландию к Санте. Мир чудес ждет: вы будете качаться на мостах длиной в милю как на качелях, официанты будут петь песни и угощать всех шоколадным тортом! Вы себе даже не можете представить, насколько это здорово! Добро пожаловать на Полярный экспресс! Том Хэнкс играет роль проводника, а Роберт Земекис - режиссер этого нескончаемого праздника, снятого с использованием самых современных, ярких и завораживающих элементов анимации, которые делают каждый момент незабываемым. Как говорит ваш волшебный попутчик Хобо: "Лучше один раз увидеть, чем сто раз услышать". Вы увидите чудеса. Вы обязательно поверите в Санта Клауса. Всех просим в экспресс!
Качество: DVDRip
Формат: AVI
Видео кодек: DivX
Аудио кодек: AC3
Видео: 720x304 (2.37:1), 25 fps, DivX Codec 6.6.1 ~1654 kbps avg, 0.30 bit/pixel
Аудио: 48 kHz, AC3 Dolby Digital, 3/2 (L,C,R,l,r) + LFE ch, ~384 kbps





Общее
Полное имя : ...\The_Polar_Express[pirat.ca].avi
Формат : AVI
Формат/Информация : Audio Video Interleave
Размер файла : 1,37 Гбайт
Продолжительность : 1 ч. 35 м.
Общий поток : 2045 Кбит/сек
Программа кодирования : VirtualDubMod 1.5.4.1 (build 2178/release)
Библиотека кодирования : VirtualDubMod build 2178/release
Видео
Идентификатор : 0
Формат : MPEG-4 Visual
Параметр BVOP формата : 1
Параметр QPel формата : Нет
Параметр GMC формата : Без точки перехода
Параметр матрицы формата : Default (H.263)
Режим смешивания : Сжатый битовый поток
Идентификатор кодека : DX50
Идентификатор кодека/Подсказка : DivX 5
Продолжительность : 1 ч. 35 м.
Битрейт : 1654 Кбит/сек
Ширина : 720 пикселей
Высота : 304 пикселя
Соотношение сторон : 2,35:1
Частота кадров : 25,000 кадров/сек
Цветовое пространство : YUV
Субдискретизация насыщенности : 4:2:0
Битовая глубина : 8 бит
Тип развёртки : Прогрессивная
Метод сжатия : С потерями
Бит/(Пиксели*Кадры) : 0.302
Размер потока : 1,11 Гбайт (81%)
Библиотека кодирования : DivX 6.6.1.4
Аудио
Идентификатор : 1
Формат : AC-3
Формат/Информация : Audio Coding 3
Расширение режима : CM (complete main)
Идентификатор кодека : 2000
Продолжительность : 1 ч. 35 м.
Вид битрейта : Постоянный
Битрейт : 384 Кбит/сек
Каналы : 6 каналов
Расположение каналов : Front: L C R, Side: L R, LFE
Частота : 48,0 КГц
Битовая глубина : 16 бит
Метод сжатия : С потерями
Задержка видео : 9 мс.
Размер потока : 263 Мбайт (19%)
Выравнивание : Разделение по промежуткам
Продолжительность промежутка : 96 мс. (2,40 видеокадра)
Время предзагрузки промежутка : 96 мс.
Язык : Russian
Download / Скачать

Хотите скачать бесплатно? Зарегистрируйтесь на сайте (ссылка на регистрацию). Pirat.ca - самый быстрый торрент трекер в рунете!

Как скачивать  ·   Что такое торрент  ·   Рейтинг и ограничения



Последний раз редактировалось: ku6opr (2011-11-08 07:09), всего редактировалось 2 раз(а)

Пост 01-Ноя-2011 06:12 (спустя 13 часов)

Топик был перенесен из форума Мультипликация в форум Зарубежные полнометражные мультфильмы

bonifaci
 

Vlad__treker

Морской Волк

184

Пост 18-Янв-2012 15:56 (спустя 2 месяца 17 дней)

[Q] 

ku6opr, оставайтесь на раздаче пожалуйста - помогу

_________________
...:::Pirat.ca:::...
..:::The Best:::...
[Профиль]  [ЛС] 

LETHIK2010

Морской Волк

Пост 23-Янв-2012 11:39 (спустя 4 дня)

[Q] 

Спасибо!
[Профиль]  [ЛС] 

kalmyk73

Морской Волк

Пост 06-Янв-2013 22:55 (спустя 11 месяцев 14 дней)

[Q] 


_________________
Я люблю тебя жизнь ну а ты меня СНОВА И СНОВА.
[Профиль]  [ЛС] 

Vaida

Лоцман

Пост 20-Янв-2013 05:04 (спустя 13 дней)

[Q] 

anime33 af
[Профиль]  [ЛС] 

Вут

Морской Волк

72

Пост 12-Авг-2013 10:12 (спустя 6 месяцев 23 дня)

[Q] 

Спасибо! С удовольствием посмотрю с детьми! Раздающему респект!
[Профиль]  [ЛС] 

alex denver71

Флибустьер

Пост 21-Дек-2014 21:13 (спустя 1 год 4 месяца)

[Q] 

Автору респект!!! Хороший мульт,смотрел с 6 летним сыном,оба довольны!!! Одобрямс!
[Профиль]  [ЛС] 

denis1705

Корсар

Пост 22-Ноя-2015 12:42 (спустя 11 месяцев)

[Q] 

Ребенку очень понравилось! Спасибо! Лови бочку
[Профиль]  [ЛС] 
Показать сообщения:    
Ответить на тему

Текущее время: Сегодня 12:50

Часовой пояс: GMT + 4



Вы не можете начинать темы
Вы не можете отвечать на сообщения
Вы не можете редактировать свои сообщения
Вы не можете удалять свои сообщения
Вы не можете голосовать в опросах
Вы не можете прикреплять файлы к сообщениям
Вы не можете скачивать файлы

▼ Вниз