ML
     
  Уважаемый Гость!
Вы можете поддержать проект и зарегистрироваться у наших партнеров - онлайн-стратегия MyLands. При регистрации в игре Вы получите код, который сможете активировать после регистрации на pirat.ca и получить 1000 дублонов.

Ваш код:
fcd618d94adc1456bccbde5047c9cd0930e4ae4d
 
     

Последний единорог / The Last Unicorn (Жюль Басс / Jules Bass, Артур Рэнкин / Arthur Rankin, Jr.) [1982 г., Фэнтези, Драма, DVDRip, ] (DVO)

Ответить на тему
 
Автор
Сообщение

Пост 02-Ноя-2011 03:42

[Q] 

Roszondas

Штурман

Последний единорог
Год выпуска: 1982
Мировая премьера: 19 Ноября 1982
Производство: США, Япония, Великобритания, Rankin/Bass Productions Inc.
Жанр: Фэнтези, Драма
Продолжительность: 01:28:58
Перевод: Любительский(двухголосый,закадровый)
Оригинальный аудиопоток: Английский
Режиссер: Жюль Басс/Jules Bass, Артур Рэнкин/Arthur Rankin, Jr.
В ролях: Миа Фэрроу/Mia Farrow, Кристофер Ли/Christopher Lee, Джефф Бриджес/Jeff Bridges, Алан Аркин/Alan Arkin, Анджела Лэнсбери/Angela Lansbury, Tammy Grimes/Тэмми Граймз
Описание: В далекой волшебной стране в сиреневой роще жил юный прекрасный единорог, знающий секреты магии. Однажды он узнал, что все его сородичи исчезли с лица земли, и он может стать последним единорогом на свете.
И тогда единорог покинул свою рощу и отправился в долгое и опасное путешествие, чтобы разыскать и спасти своих сородичей. Много приключении пришлось ему пережить и многих опасных врагов довелось повстречать-свиноподобную ведьму Матушку Фортуну, шайку разбойников капитана Калли, злобного и жадного короля Хэггарда.
Но с помощью верных друзей — волшебника-недоучки Шмендрика, девушки Молли и прекрасного принца Лира -единорогу удалось одолеть огромного и страшного Красного Быка и освободить своих собратьев-единорогов.
IMDB, КиноПоиск
Источник/Качество: DVDRip
Формат: AVI
Видео кодек: DivX
Аудио кодек: AC3
Видео: MPEG-4 Visual, 720 x 400 (9:5), 25 fps
Аудио: AC-3, 48000Hz, 2ch, 224 kbps
Видео
Идентификатор : 0
Формат : MPEG-4 Visual
Параметр BVOP формата : 1
Параметр QPel формата : Нет
Параметр GMC формата : Без точки перехода
Параметр матрицы формата : Default (H.263)
Режим смешивания : Сжатый битовый поток
Идентификатор кодека : DX50
Идентификатор кодека/Подсказка : DivX 5
Продолжительность : 1 ч. 28 м.
Битрейт : 1970 Кбит/сек
Ширина : 720 пикселей
Высота : 400 пикселей
Соотношение сторон : 16:9
Частота кадров : 25,000 кадров/сек
Цветовое пространство : YUV
Субдискретизация насыщенности : 4:2:0
Битовая глубина : 8 бит
Тип развёртки : Прогрессивная
Метод сжатия : С потерями
Бит/(Пиксели*Кадры) : 0.274
Размер потока : 1,22 Гбайт (90%)
Библиотека кодирования : DivX 6.6.1.4
Аудио
Идентификатор : 1
Формат : AC-3
Формат/Информация : Audio Coding 3
Расширение режима : CM (complete main)
Идентификатор кодека : 2000
Продолжительность : 1 ч. 28 м.
Вид битрейта : Постоянный
Битрейт : 224 Кбит/сек
Каналы : 2 канала
Расположение каналов : Front: L R
Частота : 48,0 КГц
Битовая глубина : 16 бит
Метод сжатия : С потерями
Размер потока : 143 Мбайт (10%)
Выравнивание : Разделение по промежуткам
Продолжительность промежутка : 96 мс. (2,40 видеокадра)
Время предзагрузки промежутка : 96 мс.



Download / Скачать

Хотите скачать бесплатно? Зарегистрируйтесь на сайте (ссылка на регистрацию). Pirat.ca - самый быстрый торрент трекер в рунете!

Как скачивать  ·   Что такое торрент  ·   Рейтинг и ограничения



Последний раз редактировалось: Roszondas (2011-11-06 21:33), всего редактировалось 1 раз

KOHb1

Штурман

Пост 02-Ноя-2011 04:19 (спустя 36 минут)

[Q] 

Непонятно как то.
А русский перевод,хоть какой то ЕСТЬ??
[Профиль]  [ЛС] 

bonifaci

Штурман

348

Пост 02-Ноя-2011 04:23 (спустя 3 минуты)

[Q] 

KOHb1, есть,читайте внимательнее.

_________________
[Профиль]  [ЛС] 

Пост 02-Ноя-2011 04:25 (спустя 2 минуты)

Топик был перенесен из форума Мультипликация в форум Зарубежные полнометражные мультфильмы

bonifaci
 

Roszondas ®

Штурман

65

Пост 02-Ноя-2011 04:37 (спустя 13 минут)

[Q] 

Надеюсь, я правильно определил перевод, как то я не специалист в этом. Вроде таки два голоса, но актеры так стараются хорошо отыграть каждого персонажа, что я аж засомневался внезапно =)
[Профиль]  [ЛС] 

abcxyz

Штурман

Пост 04-Ноя-2011 10:51 (спустя 2 дня 6 часов)

[Q] 

Раздавать кто-нибудь будет или нет?
[Профиль]  [ЛС] 

Roszondas ®

Штурман

65

Пост 04-Ноя-2011 13:06 (спустя 2 часа 14 минут)

[Q] 

Если вкратце - да =)
[Профиль]  [ЛС] 

Creed72

9783

Пост 04-Ноя-2011 20:22 (спустя 7 часов)

[Q] 

Раздача поддерживается группой Seed Aid.

_________________
Я мзду не беру. Мне за Державу обидно.(с)
[Профиль]  [ЛС] 

KOHb1

Штурман

Пост 05-Ноя-2011 00:30 (спустя 4 часа)

[Q] 

Странно это...скачал..поставил на раздачу,в торренте горит зелёным,а в моей статистике раздач этого файла НЕТ!!
Перехешировал...перегрузился...всё равно-НЕТ !
а другие есть...как положено хммм..
впервые сталкиваюсь с такой проблемой
[Профиль]  [ЛС] 

Roszondas ®

Штурман

65

Пост 05-Ноя-2011 04:53 (спустя 4 часа)

[Q] 

Да сейчас все как-то вообще с задержкой отображается. То через часик изменения обновятся, а то и через сутки только. Издержки недавнего катаклизма =) Надеюсь, поправят.
[Профиль]  [ЛС] 

KOHb1

Штурман

Пост 05-Ноя-2011 19:32 (спустя 14 часов)

[Q] 

Roszondas[/b Это фильм-ПОСЛЕДНИЙ ЕДИНОРОГ..
скачан полностью.висит на раздаче...
скачанных байт вообще-НОЛЬ !!! уже третьи сутки..
может из-за того,что раздача ЗОЛОТАЯ?????
[Профиль]  [ЛС] 

KOHb1

Штурман

Пост 05-Ноя-2011 19:54 (спустя 22 минуты)

[Q] 

Интересно просто...а в Вашей статистике я ЕСТЬ?? в списке скачавших???
[Профиль]  [ЛС] 
Показать сообщения:    
Ответить на тему

Текущее время: Сегодня 12:53

Часовой пояс: GMT + 4



Вы не можете начинать темы
Вы не можете отвечать на сообщения
Вы не можете редактировать свои сообщения
Вы не можете удалять свои сообщения
Вы не можете голосовать в опросах
Вы не можете прикреплять файлы к сообщениям
Вы не можете скачивать файлы

▼ Вниз