ML
     
  Уважаемый Гость!
Вы можете поддержать проект и зарегистрироваться у наших партнеров - онлайн-стратегия MyLands. При регистрации в игре Вы получите код, который сможете активировать после регистрации на pirat.ca и получить 1000 дублонов.

Ваш код:
a261790f23fb05d13d060bdee9cb70d1451a6d3d
 
     

Бэтмен: Под колпаком / Batman: Under the Red Hood (Брэндон Виетти / Brandon Vietti) [2010 г., Мультфильм, Боевик, Триллер, Криминал, DVDRip] (MVO)

Ответить на тему
 
Автор
Сообщение

Пост 02-Ноя-2011 06:03

[Q] 

Ksandr

Флибустьер

Бэтмен: Под колпаком / Batman: Under the Red Hood
Год выпуска: 2010
Мировая премьера: 27 июля 2010
Производство: США
Жанр: Мультфильм, Боевик, Триллер, Криминал
Продолжительность: 01:15:58
Перевод: Любительский (многоголосый, закадровый)
Режиссер: Брэндон Виетти / Brandon Vietti
В ролях: Брюс Гринвуд, Дженсен Эклс, Джон Ди Маджио, Нил Патрик Харрис, Джейсон Айзекс, Уэйд Уильямс, Карлос Алазраки, Роберт Клотуорти, Гэри Коул, Брайан Джордж
Описание: В Готэме появляется новый смертоносный мститель, называющий себя Красным Колпаком. Он начинает кровавую территориальную войну с криминальным королем города Черной Маской, и Темный Рыцарь быстро понимает, что новичок знает и умеет слишком много для простого преступника…
Источник/Качество: DVDRip
Формат: AVI
Видео кодек: XviD
Аудио кодек: MP3
Видео: MPEG-4 Visual, XviD, 720x480, ~1149 kbps, 29,970 fps
Аудио: MPEG Audio, 2ch, 256 kbps, 44,1 КГц
Общее
Полное имя : Batman Under the Red Hood[pirat.ca].avi
Формат : AVI
Формат/Информация : Audio Video Interleave
Размер файла : 770 Мбайт
Продолжительность : 1 ч. 15 м.
Общий поток : 1416 Кбит/сек
Программа кодирования : VirtualDubMod 1.5.10.2 (build 2540/release)
Библиотека кодирования : VirtualDubMod build 2540/release
Видео
Идентификатор : 0
Формат : MPEG-4 Visual
Профиль формата : [email protected]
Параметр BVOP формата : Нет
Параметр QPel формата : Нет
Параметр GMC формата : Без точки перехода
Параметр матрицы формата : Default (H.263)
Идентификатор кодека : XVID
Идентификатор кодека/Подсказка : XviD
Продолжительность : 1 ч. 15 м.
Битрейт : 1149 Кбит/сек
Ширина : 720 пикселей
Высота : 480 пикселей
Соотношение сторон : 3:2
Частота кадров : 29,970 кадров/сек
Стандарт вещания : NTSC
Цветовое пространство : YUV
Субдискретизация насыщенности : 4:2:0
Битовая глубина : 8 бит
Тип развёртки : Прогрессивная
Метод сжатия : С потерями
Бит/(Пиксели*Кадры) : 0.111
Размер потока : 624 Мбайт (81%)
Библиотека кодирования : XviD 1.2.1 (UTC 2008-12-04)
Аудио
Идентификатор : 1
Формат : MPEG Audio
Версия формата : Version 1
Профиль формата : Layer 3
Идентификатор кодека : 55
Идентификатор кодека/Подсказка : MP3
Продолжительность : 1 ч. 15 м.
Вид битрейта : Постоянный
Битрейт : 256 Кбит/сек
Каналы : 2 канала
Частота : 44,1 КГц
Метод сжатия : С потерями
Размер потока : 139 Мбайт (18%)
Выравнивание : Разделение по промежуткам
Продолжительность промежутка : 33 мс. (1,00 видеокадр)
Время предзагрузки промежутка : 500 мс.


Download / Скачать

Хотите скачать бесплатно? Зарегистрируйтесь на сайте (ссылка на регистрацию). Pirat.ca - самый быстрый торрент трекер в рунете!

Как скачивать  ·   Что такое торрент  ·   Рейтинг и ограничения



Последний раз редактировалось: Ksandr (2011-11-06 21:01), всего редактировалось 1 раз

Пост 02-Ноя-2011 06:13 (спустя 10 минут)

Топик был перенесен из форума Мультипликация в форум Новинки (BDRip/HDRip/DVDRip/DVDScr/ТС/SATRip/WP )

Sirota
 

Sonic777

Корсар

Пост 02-Ноя-2011 09:05 (спустя 3 часа)

[Q] 

Спасибо..глянем Бэтмена!
[Профиль]  [ЛС] 

dimonpa

Гроза морей

Пост 02-Ноя-2011 09:27 (спустя 22 минуты)

[Q] 

За мульт спасибо !!! Раздающему респект !!!
[Профиль]  [ЛС] 

Пост 08-Дек-2011 11:41 (спустя 1 месяц 6 дней)

Топик был перенесен из форума Новинки (HD|DVD|BD|TV|SAT|PDTV| - Rips) в форум Зарубежные полнометражные мультфильмы

oliks
 
Показать сообщения:    
Ответить на тему

Текущее время: Сегодня 20:02

Часовой пояс: GMT + 4



Вы не можете начинать темы
Вы не можете отвечать на сообщения
Вы не можете редактировать свои сообщения
Вы не можете удалять свои сообщения
Вы не можете голосовать в опросах
Вы не можете прикреплять файлы к сообщениям
Вы не можете скачивать файлы

▼ Вниз