ML
     
  Уважаемый Гость!
Вы можете поддержать проект и зарегистрироваться у наших партнеров - онлайн-стратегия MyLands. При регистрации в игре Вы получите код, который сможете активировать после регистрации на pirat.ca и получить 1000 дублонов.

Ваш код:
5af7de75d3db09b6a37bc8bab71b0e87ccde73d6
 
     

Доктор Стрэндж и Тайна Ордена магов / Doctor Strange (Патрик Арчибальд, Джей Олива, Дик Сэбаст / Patrick Archibald, Jay Oliva, Dick Sebast) [2007 г., Мультфильм, Фэнтези, HDRip] (MVO)

Ответить на тему
 
Автор
Сообщение

Пост 02-Ноя-2011 06:18

[Q] 

Ksandr

Флибустьер

Доктор Стрэндж и Тайна Ордена магов / Doctor Strange
Год выпуска: 2007
Мировая премьера: 14 августа 2007
Производство: США
Жанр: Мультфильм, Фэнтези
Продолжительность: 01:16:24
Перевод: Профессиональный (многоголосый, закадровый)
Режиссер: Патрик Арчибальд, Джей Олива, Дик Сэбаст / Patrick Archibald, Jay Oliva, Dick Sebast
В ролях: Брюс Джонсон, Paul Nakauchi, Кевин Майкл Ричардсон, Майкл Яма, Сьюзэн Спано, Джонатан Адамс, Фред Татаскьор, Тара Стронг, Джошуа Китон, Фил ЛаМарр
Описание: Много веков назад Великие Мудрецы создали Орден Воинов-Магов, призванный защищать людей от Злых сил. Вступить в него может только избранный. И однажды среди смертных появится тот, кто познает все вселенские тайны. Он станет величайшим из героев, который спасет этот мир в решающей битве со Злом!
Источник/Качество: HDRip
Формат: AVI
Видео кодек: XviD
Аудио кодек: MP3
Видео: MPEG-4 Visual, XviD, 688x384, ~1229 kbps, 23,976 fps
Аудио: MPEG Audio, 2ch, 128 kbps, 48,0 КГц
Общее
Полное имя : Doctor Strange[pirat.ca].avi
Формат : AVI
Формат/Информация : Audio Video Interleave
Размер файла : 747 Мбайт
Продолжительность : 1 ч. 16 м.
Общий поток : 1366 Кбит/сек
Программа кодирования : VirtualDubMod 1.5.10.2 (build 2540/release)
Библиотека кодирования : VirtualDubMod build 2540/release
Видео
Идентификатор : 0
Формат : MPEG-4 Visual
Профиль формата : Advanced [email protected]
Параметр BVOP формата : 1
Параметр QPel формата : Нет
Параметр GMC формата : Без точки перехода
Параметр матрицы формата : Default (MPEG)
Идентификатор кодека : XVID
Идентификатор кодека/Подсказка : XviD
Продолжительность : 1 ч. 16 м.
Битрейт : 1229 Кбит/сек
Ширина : 688 пикселей
Высота : 384 пикселя
Соотношение сторон : 16:9
Частота кадров : 23,976 кадра/сек
Цветовое пространство : YUV
Субдискретизация насыщенности : 4:2:0
Битовая глубина : 8 бит
Тип развёртки : Прогрессивная
Метод сжатия : С потерями
Бит/(Пиксели*Кадры) : 0.194
Размер потока : 671 Мбайт (90%)
Библиотека кодирования : XviD 1.2.0.dev47 (UTC 2006-11-01)
Аудио
Идентификатор : 1
Формат : MPEG Audio
Версия формата : Version 1
Профиль формата : Layer 3
Идентификатор кодека : 55
Идентификатор кодека/Подсказка : MP3
Продолжительность : 1 ч. 16 м.
Вид битрейта : Постоянный
Битрейт : 128 Кбит/сек
Каналы : 2 канала
Частота : 48,0 КГц
Метод сжатия : С потерями
Размер потока : 70,0 Мбайт (9%)
Выравнивание : Соединение по промежуткам
Продолжительность промежутка : 42 мс. (1,00 видеокадр)
Время предзагрузки промежутка : 504 мс.
Библиотека кодирования : LAME3.97
Настройки программы : -m s -V 4 -q 2 -lowpass 17 -b 128


Download / Скачать

Хотите скачать бесплатно? Зарегистрируйтесь на сайте (ссылка на регистрацию). Pirat.ca - самый быстрый торрент трекер в рунете!

Как скачивать  ·   Что такое торрент  ·   Рейтинг и ограничения



Последний раз редактировалось: Ksandr (2011-11-06 20:50), всего редактировалось 1 раз

Пост 02-Ноя-2011 07:04 (спустя 45 минут)

Топик был перенесен из форума Мультипликация в форум Зарубежные полнометражные мультфильмы

Sirota
 

manu

Пост 14-Ноя-2013 19:13 (спустя 2 года)

[Q] 

Постою на раздаче. Ну ты юморист... Зуб даю...
[Профиль]  [ЛС] 

darkroot

Шкипер

Пост 17-Апр-2014 22:31 (спустя 5 месяцев 3 дня)

[Q] 

как мульт?) кто смотрел?

_________________
[Профиль]  [ЛС] 

Kung-fu Cat

Морской Волк

Пост 24-Дек-2014 21:51 (спустя 8 месяцев 6 дней)

[Q] 

Супер мультфильм!!!

_________________
[Профиль]  [ЛС] 
Показать сообщения:    
Ответить на тему

Текущее время: Сегодня 14:12

Часовой пояс: GMT + 4



Вы не можете начинать темы
Вы не можете отвечать на сообщения
Вы не можете редактировать свои сообщения
Вы не можете удалять свои сообщения
Вы не можете голосовать в опросах
Вы не можете прикреплять файлы к сообщениям
Вы не можете скачивать файлы

▼ Вниз