ML
     
  Уважаемый Гость!
Вы можете поддержать проект и зарегистрироваться у наших партнеров - онлайн-стратегия MyLands. При регистрации в игре Вы получите код, который сможете активировать после регистрации на pirat.ca и получить 1000 дублонов.

Ваш код:
8dcb839cf1b47e56d6dc42d17f26b3e4822e9aee
 
     

Писюн / Приключения члена Вилли / Wicked Willie (Боб Годфри / Bob Godfrey) [1990 г., комедия, для взрослых DVDRip] (MVO) (+18)

Ответить на тему
 
Автор
Сообщение

Пост 02-Ноя-2011 22:45

[Q] 

Sirota

Легенда

Писюн / Приключения члена Вилли / Wicked Willie Год выпуска: 1990
Дата выхода DVD: 2 июля 2009, «Настроение Video»
Производство: Великобритания
Жанр: комедия
Продолжительность: 01:13:20
Перевод: профессиональный (многоголосый, закадровый)
Режиссер: Боб Годфри / Bob Godfrey
Описание: Классическая британская анимация от лауреата "ОСКАРА"
Ироничный и приправленный изрядной долей английского юмора анимационный мини-сериал о приключениях славного малого по имени Писюн.
У Писюна всегда есть свое мнение и взгляд на вещи, далеко не всегда совпадающее с желаниями и возможностями хозяина, к коему он намертво прикреплен. Но он изворотлив и хитер, как змий, и найдет выход из любой ситуации и путь к душе всякой женщины.
Доп. информация: «Одна голова хорошо, а две лучше.»
IMDB, КиноПоиск
Источник/Качество: DVDRip
Формат: AVI
Видео кодек: XviD
Аудио кодек: AC3
Видео: 688x512 (1.34:1), 25 fps, XviD MPEG-4 ~2028 kbps avg, 0.23 bit/pixel
Аудио: 48 kHz, AC3 Dolby Digital, 3/2 (L,C,R,l,r) + LFE ch, ~448.00 kbps avg
Субтитры: нет
General
Format : AVI
Format/Info : Audio Video Interleave
File size : 1.27 GiB
Duration : 1h 13mn
Overall bit rate : 2 486 Kbps
Writing library : Boilsoft Joiner build 2411/release
Video #0
ID : 0
Format : MPEG-4 Visual
Format profile : [email protected]
Format settings, BVOP : Yes
Format settings, QPel : No
Format settings, GMC : No warppoints
Format settings, Matrix : Default (MPEG)
Muxing mode : Packed bitstream
Codec ID : XVID
Codec ID/Hint : XviD
Duration : 1h 13mn
Bit rate : 2 029 Kbps
Width : 688 pixels
Height : 512 pixels
Display aspect ratio : 4:3
Frame rate : 25.000 fps
Resolution : 24 bits
Colorimetry : 4:2:0
Scan type : Progressive
Bits/(Pixel*Frame) : 0.230
Stream size : 1.04 GiB (82%)
Writing library : XviD 1.2.0.dev47 (UTC 2006-11-01)
Audio #1
ID : 1
Format : AC-3
Format/Info : Audio Coding 3
Codec ID : 2000
Duration : 1h 13mn
Bit rate mode : Constant
Bit rate : 448 Kbps
Channel(s) : 6 channels
Channel positions : Front: L C R, Surround: L R, LFE
Sampling rate : 48.0 KHz
Stream size : 235 MiB (18%)
Alignment : Split accross interleaves
Interleave, duration : 40 ms (1.00 video frame)
Interleave, preload duration : 500 ms
-
-Релиз подготовлен:

-
-
Download / Скачать

Хотите скачать бесплатно? Зарегистрируйтесь на сайте (ссылка на регистрацию). Pirat.ca - самый быстрый торрент трекер в рунете!

Как скачивать  ·   Что такое торрент  ·   Рейтинг и ограничения



Последний раз редактировалось: Sirota (2011-11-12 15:04), всего редактировалось 2 раз(а)

Пост 02-Ноя-2011 23:51 (спустя 1 час 5 минут)

Топик был перенесен из форума Мультипликация в форум Зарубежные полнометражные мультфильмы

zyyx
 

VIRGIN

Штурман

41

Пост 20-Ноя-2011 11:00 (спустя 17 дней)

[Q] 

Спасибо

_________________
Рожденный в СССР...
[Профиль]  [ЛС] 

dsfas

Корсар

313

Пост 26-Ноя-2011 03:29 (спустя 5 дней)

[Q] 

Прикольный мультик.

_________________
[Профиль]  [ЛС] 

mishasmith.sx4

Шкипер

Пост 29-Ноя-2011 15:25 (спустя 3 дня)

[Q] 

...надо посмитреть как там у них.... в Великобритании :)
[Профиль]  [ЛС] 

_SARMAT_

Лоцман

Пост 10-Дек-2011 01:55 (спустя 10 дней)

[Q] 

есть над чем поржать))
[Профиль]  [ЛС] 

CHARLI2236

1098

Пост 30-Окт-2012 13:22 (спустя 10 месяцев 20 дней)

[Q] 

спс

_________________
[Профиль]  [ЛС] 

Алоизий

Флибустьер

Пост 05-Ноя-2012 11:13 (спустя 5 дней)

[Q] 

Спасибо, качну.
[Профиль]  [ЛС] 

Андря

8419

Пост 06-Мар-2015 21:04 (спустя 2 года 4 месяца)

[Q] 

смотреть всем

_________________
Като Тешекика
[Профиль]  [ЛС] 
Показать сообщения:    
Ответить на тему

Текущее время: Сегодня 04:15

Часовой пояс: GMT + 4



Вы не можете начинать темы
Вы не можете отвечать на сообщения
Вы не можете редактировать свои сообщения
Вы не можете удалять свои сообщения
Вы не можете голосовать в опросах
Вы не можете прикреплять файлы к сообщениям
Вы не можете скачивать файлы

▼ Вниз