ML
     
  Уважаемый Гость!
Вы можете поддержать проект и зарегистрироваться у наших партнеров - онлайн-стратегия MyLands. При регистрации в игре Вы получите код, который сможете активировать после регистрации на pirat.ca и получить 1000 дублонов.

Ваш код:
47bfc18b89c74e4ae0d974e9b6943639e2bff08e
 
     

Супермен/Бэтмен: Апокалипсис / Superman/Batman: Apocalypse (Лоурен Монтгомери / Lauren Montgomery) [2010 г., Мультфильм, Боевик, Приключения, DVDRip] (MVO)

Ответить на тему
 
Автор
Сообщение

Пост 02-Ноя-2011 23:44

[Q] 

Ksandr

Флибустьер

Супермен/Бэтмен: Апокалипсис / Superman/Batman: Apocalypse
Год выпуска: 2010
Мировая премьера: 28 сентября 2010
Производство: США
Жанр: Мультфильм, Боевик, Приключения
Продолжительность: 01:18:09
Перевод: Любительский (многоголосый, закадровый)
Режиссер: Лоурен Монтгомери / Lauren Montgomery
В ролях: Андре Брогер, Кевин Конрой, Тим Дейли, Сьюзэн Эйзенберг, Саммер Глау, Джулианна Гроссман, Эдвард Эснер, Джон Циган, Дэйв Митчел, Рэйчел Куинтанс
Описание: После того, как Бэтмен уничтожил криптонитовый астероид, а Супермен добился импичмента президента Лютора (события, происходившие в фильме «Супермен / Бэтмен — Враги Общества»), вроде всё должно бы закончиться, но…. Один из осколков криптонитового астероида падает в Готэмский Залив. Бэтмен, исследуя обломки, обнаруживает, что его катер пытаются угнать. Преследуя угонщика, он находит девушку с суперспособностями. Так начинается эта необычная история…
Источник/Качество: DVDRip
Формат: AVI
Видео кодек: XviD
Аудио кодек: MP3
Видео: MPEG-4 Visual, XviD, 688x384, ~1199 kbps, 23,976 fps
Аудио: MPEG Audio, 2ch, 128 kbps, 48,0 КГц
Общее
Полное имя : SupermanBatman Apocalypse[pirat.ca].avi
Формат : AVI
Формат/Информация : Audio Video Interleave
Размер файла : 747 Мбайт
Продолжительность : 1 ч. 18 м.
Общий поток : 1336 Кбит/сек
Программа кодирования : VirtualDubMod 1.5.10.2 (build 2540/release)
Библиотека кодирования : VirtualDubMod build 2540/release
Видео
Идентификатор : 0
Формат : MPEG-4 Visual
Профиль формата : Advanced [email protected]
Параметр BVOP формата : 1
Параметр QPel формата : Нет
Параметр GMC формата : Без точки перехода
Параметр матрицы формата : Default (MPEG)
Идентификатор кодека : XVID
Идентификатор кодека/Подсказка : XviD
Продолжительность : 1 ч. 18 м.
Битрейт : 1199 Кбит/сек
Ширина : 688 пикселей
Высота : 384 пикселя
Соотношение сторон : 16:9
Частота кадров : 23,976 кадра/сек
Цветовое пространство : YUV
Субдискретизация насыщенности : 4:2:0
Битовая глубина : 8 бит
Тип развёртки : Прогрессивная
Метод сжатия : С потерями
Бит/(Пиксели*Кадры) : 0.189
Размер потока : 670 Мбайт (90%)
Библиотека кодирования : XviD 1.2.1 (UTC 2008-12-04)
Аудио
Идентификатор : 1
Формат : MPEG Audio
Версия формата : Version 1
Профиль формата : Layer 3
Идентификатор кодека : 55
Идентификатор кодека/Подсказка : MP3
Продолжительность : 1 ч. 18 м.
Вид битрейта : Постоянный
Битрейт : 128 Кбит/сек
Каналы : 2 канала
Частота : 48,0 КГц
Метод сжатия : С потерями
Размер потока : 71,6 Мбайт (10%)
Выравнивание : Соединение по промежуткам
Продолжительность промежутка : 42 мс. (1,00 видеокадр)
Время предзагрузки промежутка : 504 мс.
Библиотека кодирования : LAME3.98r
Настройки программы : -m s -V 4 -q 2 -lowpass 17 -b 128


Download / Скачать

Хотите скачать бесплатно? Зарегистрируйтесь на сайте (ссылка на регистрацию). Pirat.ca - самый быстрый торрент трекер в рунете!

Как скачивать  ·   Что такое торрент  ·   Рейтинг и ограничения



Последний раз редактировалось: Ksandr (2011-11-06 21:09), всего редактировалось 1 раз

Пост 03-Ноя-2011 08:03 (спустя 8 часов)

Топик был перенесен из форума Мультипликация в форум Новинки (BDRip/HDRip/DVDRip/DVDScr/ТС/SATRip/WP )

Sirota
 

vasi

Корсар

Пост 03-Ноя-2011 21:52 (спустя 22 часа)

[Q] 

спасиба
[Профиль]  [ЛС] 

CHARLI2236

1097

Пост 26-Ноя-2011 17:38 (спустя 22 дня)

[Q] 

спасибо

_________________
[Профиль]  [ЛС] 

Пост 08-Дек-2011 14:01 (спустя 11 дней)

Топик был перенесен из форума Новинки (HD|DVD|BD|TV|SAT|PDTV| - Rips) в форум Зарубежные полнометражные мультфильмы

oliks
 

Wankin

Морской Волк

Пост 16-Янв-2012 01:22 (спустя 1 месяц 19 дней)

[Q] 

СПАСИБО!
[Профиль]  [ЛС] 

LETHIK2010

Морской Волк

Пост 23-Янв-2012 11:40 (спустя 7 дней)

[Q] 

Спасибо! Посмотрим.
[Профиль]  [ЛС] 
Показать сообщения:    
Ответить на тему

Текущее время: Сегодня 07:03

Часовой пояс: GMT + 4



Вы не можете начинать темы
Вы не можете отвечать на сообщения
Вы не можете редактировать свои сообщения
Вы не можете удалять свои сообщения
Вы не можете голосовать в опросах
Вы не можете прикреплять файлы к сообщениям
Вы не можете скачивать файлы

▼ Вниз