ML
     
  Уважаемый Гость!
Вы можете поддержать проект и зарегистрироваться у наших партнеров - онлайн-стратегия MyLands. При регистрации в игре Вы получите код, который сможете активировать после регистрации на pirat.ca и получить 1000 дублонов.

Ваш код:
0ea1bf889af42fca5f67d0a391efb3400850ad7c
 
     

Лига справедливости: Новый барьер / Justice League: The New Frontier (Дэйв Баллок / Dave Bullock) [2008 г., Мультфильм, Фантастика, Фэнтези, Боевик, Приключения, HDRip] (MVO)

Ответить на тему
 
Автор
Сообщение

Пост 03-Ноя-2011 00:06

[Q] 

Ksandr

Флибустьер

Лига справедливости: Новый барьер / Justice League: The New Frontier
Год выпуска: 2008
Мировая премьера: 26 февраля 2008
Производство: США
Жанр: Мультфильм, Фантастика, Фэнтези, Боевик, Приключения
Продолжительность: 01:14:54
Перевод: Профессиональный (многоголосый, закадровый)
Режиссер: Дэйв Баллок / Dave Bullock
В ролях: Дэвид Бореаназ, Мигель Феррер, Нил Патрик Харрис, Джон Хёрд, Люси Лоулесс, Кайл МакЛоклен, Алексис Лэнг, Фил Моррис, Кира Седжвик, Брук Шилдс
Описание: Действия мультфильма происходят в 1954 году. Отважные супергерои должны защитить планету не только от людского зла, но и Вселенского. На Землю надвигаются тысячи злых пришельцев. Супермен, Флэш, Зелёный Фонарь, Чудо-Женщина, Бэтмен и многие другие герои отдают свои жизни за родную планету.
Источник/Качество: HDRip
Формат: AVI
Видео кодек: XviD
Аудио кодек: MP3
Видео: MPEG-4 Visual, XviD, 688x384, ~1256 kbps, 23,976 fps
Аудио: MPEG Audio, 2ch, 128 kbps, 48,0 КГц
Общее
Полное имя : Justice League The New Frontier[pirat.ca].avi
Формат : AVI
Формат/Информация : Audio Video Interleave
Размер файла : 747 Мбайт
Продолжительность : 1 ч. 14 м.
Общий поток : 1394 Кбит/сек
Программа кодирования : VirtualDubMod 1.5.10.2 (build 2540/release)
Библиотека кодирования : VirtualDubMod build 2540/release
Видео
Идентификатор : 0
Формат : MPEG-4 Visual
Профиль формата : Advanced [email protected]
Параметр BVOP формата : 1
Параметр QPel формата : Нет
Параметр GMC формата : Без точки перехода
Параметр матрицы формата : Default (MPEG)
Идентификатор кодека : XVID
Идентификатор кодека/Подсказка : XviD
Продолжительность : 1 ч. 14 м.
Битрейт : 1256 Кбит/сек
Ширина : 688 пикселей
Высота : 384 пикселя
Соотношение сторон : 16:9
Частота кадров : 23,976 кадра/сек
Цветовое пространство : YUV
Субдискретизация насыщенности : 4:2:0
Битовая глубина : 8 бит
Тип развёртки : Прогрессивная
Метод сжатия : С потерями
Бит/(Пиксели*Кадры) : 0.198
Размер потока : 673 Мбайт (90%)
Библиотека кодирования : XviD 1.2.0.dev47 (UTC 2006-11-01)
Аудио
Идентификатор : 1
Формат : MPEG Audio
Версия формата : Version 1
Профиль формата : Layer 3
Идентификатор кодека : 55
Идентификатор кодека/Подсказка : MP3
Продолжительность : 1 ч. 14 м.
Вид битрейта : Постоянный
Битрейт : 128 Кбит/сек
Каналы : 2 канала
Частота : 48,0 КГц
Метод сжатия : С потерями
Размер потока : 68,6 Мбайт (9%)
Выравнивание : Соединение по промежуткам
Продолжительность промежутка : 42 мс. (1,00 видеокадр)
Время предзагрузки промежутка : 504 мс.
Библиотека кодирования : LAME3.97
Настройки программы : -m s -V 4 -q 2 -lowpass 17 -b 128


Download / Скачать

Хотите скачать бесплатно? Зарегистрируйтесь на сайте (ссылка на регистрацию). Pirat.ca - самый быстрый торрент трекер в рунете!

Как скачивать  ·   Что такое торрент  ·   Рейтинг и ограничения



Последний раз редактировалось: Ksandr (2011-11-06 20:51), всего редактировалось 1 раз

Пост 03-Ноя-2011 00:22 (спустя 16 минут)

Топик был перенесен из форума Мультипликация в форум Зарубежные полнометражные мультфильмы

Sirota
 

Lancelot79

Лоцман

Пост 04-Ноя-2011 17:57 (спустя 1 день 17 часов)

[Q] 

Дайте скорости плиз!!!
[Профиль]  [ЛС] 

gves007

Морской Волк

Пост 28-Июл-2012 20:52 (спустя 8 месяцев 24 дня)

[Q] 

Спасибо

_________________
Пиво - величайшее изобретение. Колесо, конечно, тоже ничего, но колесо с рыбой - все-таки не то…
[Профиль]  [ЛС] 

erchine

44807

Пост 05-Авг-2012 23:58 (спустя 8 дней)

[Q] 

Спасибо за мультфильм от DC Comics!-Другие супергерои
[Профиль]  [ЛС] 
Показать сообщения:    
Ответить на тему

Текущее время: Сегодня 00:37

Часовой пояс: GMT + 4



Вы не можете начинать темы
Вы не можете отвечать на сообщения
Вы не можете редактировать свои сообщения
Вы не можете удалять свои сообщения
Вы не можете голосовать в опросах
Вы не можете прикреплять файлы к сообщениям
Вы не можете скачивать файлы

▼ Вниз