ML
     
  Уважаемый Гость!
Вы можете поддержать проект и зарегистрироваться у наших партнеров - онлайн-стратегия MyLands. При регистрации в игре Вы получите код, который сможете активировать после регистрации на pirat.ca и получить 1000 дублонов.

Ваш код:
fe4e93b754a7c2b306fcfc8bc32532ea1cf59d3b
 
     

Любимчики \ La tropa de trapo en el pais donde siempre brilla el sol (Алекс Коллс / Alex Colls) [2010 г., приключения, комедия, детский, DVDRip] (Dub)

Ответить на тему
 
Автор
Сообщение

Пост 03-Ноя-2011 00:13

[Q] 

Sirota

Легенда

Любимчики \ La tropa de trapo en el pais donde siempre brilla el sol Год выпуска: 2010
Мировая премьера: 25 сентября 2011
Российская премьера: 29 сентября 2011, «Кинопром»
Дата выхода DVD: 15 ноября 2011, «Парадиз Видео»
Производство: Испания
Жанр: приключения, мюзикл, комедия, детский, семейный
Продолжительность: 01:14:18
Перевод: профессиональный (полное дублирование)
Автор(ы) перевода: Алексей Травин, Светлана Климович, Александр Шпынёв, Дмитрий Стрелков, Ольга Калачова
Режиссер: Алекс Коллс / Alex Colls
В ролях: Чело Диаз,
Anton Etxeita,
Гаспар Гонзалес,
Clara Gagino,
София Ферро,
Тере Сантамария,
Луис Иглесиас,
Андрес Беллас,
Нора Абад,
Беа Гарсиа,
Описание: Приключения коровки Му-Му и ее друзей. Чтобы стать настоящей звездой, ей предстоит отправиться в волшебную страну, где всегда светит солнышко. Во время путешествия она понимает, что не важно звезда ты или нет, главное, что у тебя есть друзья!
Доп. информация: сценарий Lola Beccaria
продюсер Панчо Касаль, Алекс Коллс, Чело Лурейро
композитор Zeltia Montes
монтаж Гильермо Репресо
Сэмпл, IMDB, КиноПоиск
Источник/Качество: DVDRip
Формат: AVI
Видео кодек: XviD
Аудио кодек: MP3
Видео: 720x400 (1.80:1), 25 fps, XviD Final 1.0.3 (build 37) ~1181 kbps avg, 0.16 bit/pixel
Аудио: 48 kHz, MPEG Layer 3, 2 ch, ~128.00 kbps avg
Субтитры: нет
General
Format : AVI
Format/Info : Audio Video Interleave
File size : 700 MiB
Duration : 1h 14mn
Overall bit rate : 1 317 Kbps
Writing application : VirtualDubMod 1.5.4.1 (build 2178/release)
Writing library : VirtualDubMod build 2178/release
Video #0
ID : 0
Format : MPEG-4 Visual
Format profile : [email protected]
Format settings, BVOP : Yes
Format settings, QPel : No
Format settings, GMC : No warppoints
Format settings, Matrix : Custom
Codec ID : XVID
Codec ID/Hint : XviD
Duration : 1h 14mn
Bit rate : 1 182 Kbps
Width : 720 pixels
Height : 400 pixels
Display aspect ratio : 16:9
Frame rate : 25.000 fps
Resolution : 24 bits
Colorimetry : 4:2:0
Scan type : Progressive
Bits/(Pixel*Frame) : 0.164
Stream size : 628 MiB (90%)
Writing library : XviD 1.0.3 (UTC 2004-12-20)
Audio #1
ID : 1
Format : MPEG Audio
Format version : Version 1
Format profile : Layer 3
Codec ID : 55
Codec ID/Hint : MP3
Duration : 1h 14mn
Bit rate mode : Constant
Bit rate : 128 Kbps
Channel(s) : 2 channels
Sampling rate : 48.0 KHz
Resolution : 16 bits
Stream size : 68.0 MiB (10%)
Alignment : Aligned on interleaves
Interleave, duration : 80 ms (2.00 video frames)
Interleave, preload duration : 504 ms
Writing library : LAME3.98







Download / Скачать

Хотите скачать бесплатно? Зарегистрируйтесь на сайте (ссылка на регистрацию). Pirat.ca - самый быстрый торрент трекер в рунете!

Как скачивать  ·   Что такое торрент  ·   Рейтинг и ограничения



Последний раз редактировалось: Sirota (2011-11-12 15:02), всего редактировалось 3 раз(а)

Пост 04-Ноя-2011 08:07 (спустя 1 день 7 часов)

Топик был перенесен из форума Зарубежные полнометражные мультфильмы в форум Новинки (BDRip/HDRip/DVDRip/DVDScr/ТС/SATRip/WP )

Sirota
 

polozm

Легенда

Пост 05-Ноя-2011 19:17 (спустя 2 дня 19 часов)

[Q] 

Спасибо!!!Качаю дочке.правда немного сомневаюсь... bn

_________________
mac mini -2.0 GHz Intel Core i7/ 8 GB DDR3. /Intel HD 3000(512mb)OS X 10.9 Mavericks
[Профиль]  [ЛС] 

Пост 08-Дек-2011 12:08 (спустя 1 месяц 2 дня)

Топик был перенесен из форума Новинки (HD|DVD|BD|TV|SAT|PDTV| - Rips) в форум Зарубежные полнометражные мультфильмы

oliks
 

CHARLI2236

1089

Пост 30-Окт-2012 13:17 (спустя 11 месяцев 24 дня)

[Q] 

благодарю

_________________
[Профиль]  [ЛС] 
Показать сообщения:    
Ответить на тему

Текущее время: Сегодня 14:27

Часовой пояс: GMT + 4



Вы не можете начинать темы
Вы не можете отвечать на сообщения
Вы не можете редактировать свои сообщения
Вы не можете удалять свои сообщения
Вы не можете голосовать в опросах
Вы не можете прикреплять файлы к сообщениям
Вы не можете скачивать файлы

▼ Вниз