ML
     
  Уважаемый Гость!
Вы можете поддержать проект и зарегистрироваться у наших партнеров - онлайн-стратегия MyLands. При регистрации в игре Вы получите код, который сможете активировать после регистрации на pirat.ca и получить 1000 дублонов.

Ваш код:
193c38d0130f05c24de871678ea3ac181461757d
 
     

Лига Справедливости: Кризис двух миров / Justice League: Crisis on Two Earths (Сэм Лью, Лоурен Монтгомери / Sam Liu, Lauren Montgomery) [2010 г., Мультфильм, Фантастика, Боевик, HDRip] (MVO)

Ответить на тему
 
Автор
Сообщение

Пост 03-Ноя-2011 00:23

[Q] 

Ksandr

Флибустьер

Лига Справедливости: Кризис двух миров / Justice League: Crisis on Two Earths
Год выпуска: 2010
Мировая премьера: 23 февраля 2010
Производство: США
Жанр: Мультфильм, Фантастика, Боевик
Продолжительность: 01:15:21
Перевод: Любительский (многоголосый закадровый)
Режиссер: Сэм Лью, Лоурен Монтгомери / Sam Liu, Lauren Montgomery
В ролях: Уильям Болдуин, Марк Хэрмон, Крис Нот, Джина Торрес, Джеймс Вудс, Джонатан Адамс, Брайан Блум, Брюс Дэвисон, Джошуа Китон, Ванесса Маршалл
Описание: Лекс Лутор, который явился из параллельного мира, чтобы нанять Лигу Справедливости для борьбы с Криминальным Синдикатом.
Противостояние добра и зла приводит обе Земли на край гибели. Рискованный план спасения, похоже, единственный шанс выжить.
Источник/Качество: HDRip
Формат: AVI
Видео кодек: XviD
Аудио кодек: MP3
Видео: MPEG-4 Visual, XviD, 704x384, ~1251 kbps, 23,976 fps
Аудио: MPEG Audio, 2ch, 128 kbps, 48,0 КГц
Общее
Полное имя : Justice League Crisis on Two Earths[pirat.ca].avi
Формат : AVI
Формат/Информация : Audio Video Interleave
Размер файла : 748 Мбайт
Продолжительность : 1 ч. 15 м.
Общий поток : 1388 Кбит/сек
Режиссёр : Ронистекс
Программа кодирования : VirtualDubModRus 1.5.10.2 (build 2540/release)
Видео
Идентификатор : 0
Формат : MPEG-4 Visual
Профиль формата : Advanced [email protected]
Параметр BVOP формата : 2
Параметр QPel формата : Нет
Параметр GMC формата : Без точки перехода
Параметр матрицы формата : Default (H.263)
Режим смешивания : Сжатый битовый поток
Идентификатор кодека : XVID
Идентификатор кодека/Подсказка : XviD
Продолжительность : 1 ч. 15 м.
Битрейт : 1251 Кбит/сек
Ширина : 704 пикселя
Высота : 384 пикселя
Соотношение сторон : 16:9
Частота кадров : 23,976 кадра/сек
Цветовое пространство : YUV
Субдискретизация насыщенности : 4:2:0
Битовая глубина : 8 бит
Тип развёртки : Прогрессивная
Метод сжатия : С потерями
Бит/(Пиксели*Кадры) : 0.193
Размер потока : 674 Мбайт (90%)
Библиотека кодирования : XviD 1.2.1 (UTC 2008-12-04)
Аудио
Идентификатор : 1
Формат : MPEG Audio
Версия формата : Version 1
Профиль формата : Layer 3
Режим : Joint stereo
Расширение режима : MS Stereo
Идентификатор кодека : 55
Идентификатор кодека/Подсказка : MP3
Продолжительность : 1 ч. 15 м.
Вид битрейта : Постоянный
Битрейт : 128 Кбит/сек
Каналы : 2 канала
Частота : 48,0 КГц
Метод сжатия : С потерями
Размер потока : 69,0 Мбайт (9%)
Выравнивание : Соединение по промежуткам
Продолжительность промежутка : 42 мс. (1,00 видеокадр)
Время предзагрузки промежутка : 504 мс.


Download / Скачать

Хотите скачать бесплатно? Зарегистрируйтесь на сайте (ссылка на регистрацию). Pirat.ca - самый быстрый торрент трекер в рунете!

Как скачивать  ·   Что такое торрент  ·   Рейтинг и ограничения



Последний раз редактировалось: Ksandr (2011-11-06 21:06), всего редактировалось 1 раз

Пост 08-Дек-2011 11:46 (спустя 1 месяц 5 дней)

Топик был перенесен из форума Новинки (HD|DVD|BD|TV|SAT|PDTV| - Rips) в форум Зарубежные полнометражные мультфильмы

oliks
 

gves007

Морской Волк

Пост 30-Июл-2012 18:04 (спустя 8 месяцев 27 дней)

[Q] 

Спасибо!!

_________________
Пиво - величайшее изобретение. Колесо, конечно, тоже ничего, но колесо с рыбой - все-таки не то…
[Профиль]  [ЛС] 

erchine

44807

Пост 05-Авг-2012 23:59 (спустя 6 дней)

[Q] 

Спасибо за мультфильм от DC Comics!-Другие супергерои
[Профиль]  [ЛС] 

Mifoziy(Puzo)

Лоцман

Пост 08-Окт-2012 18:49 (спустя 2 месяца 2 дня)

[Q] 

Спасибо
[Профиль]  [ЛС] 

CHARLI2236

1092

Пост 28-Окт-2012 22:01 (спустя 20 дней)

[Q] 

спасибо раздающему

_________________
[Профиль]  [ЛС] 

s.tema99

Корсар

94

Пост 16-Янв-2013 19:18 (спустя 2 месяца 18 дней)

[Q] 

Перевод не сильно пеорадывал но за мульт огромное
[Профиль]  [ЛС] 

mariofart

Лоцман

Пост 27-Янв-2015 13:41 (спустя 2 года)

[Q] 

перевод и вправду не очень
[Профиль]  [ЛС] 
Показать сообщения:    
Ответить на тему

Текущее время: Сегодня 18:05

Часовой пояс: GMT + 4



Вы не можете начинать темы
Вы не можете отвечать на сообщения
Вы не можете редактировать свои сообщения
Вы не можете удалять свои сообщения
Вы не можете голосовать в опросах
Вы не можете прикреплять файлы к сообщениям
Вы не можете скачивать файлы

▼ Вниз