ML
     
  Уважаемый Гость!
Вы можете поддержать проект и зарегистрироваться у наших партнеров - онлайн-стратегия MyLands. При регистрации в игре Вы получите код, который сможете активировать после регистрации на pirat.ca и получить 1000 дублонов.

Ваш код:
a261790f23fb05d13d060bdee9cb70d1451a6d3d
 
     

Братец медвежонок 1-2 (Аарон Блейс, Роберт Уолкер/Aaron Bleys, Robert Uolker) [2003 - 2006 г., фэнтези, приключения, семейный, мультфильм, DVDRip] (Dub)

Ответить на тему
 
Автор
Сообщение

Пост 03-Ноя-2011 13:18

[Q] 

Dj NIKI

Флибустьер

Братец медвежонок
Год выпуска: 2003
Производство: США
Жанр: фэнтези, приключения, семейный, мультфильм
Продолжительность: 01:10:17
Перевод: Профессиональный (полное дублирование)
Оригинальный аудиопоток: Отсутствует
Режиссер: Аарон Блейс, Роберт Уолкер/Aaron Bleys, Robert Uolker
В ролях: Хоакин Феникс,Джереми Суарес,Джейсон Райз,Рик Морэнис,Дэйв Томас,Д.Б. Суини,Джоан Коуплэнд,Майкл Кларк Дункан
Описание: Давным-давно, в те времена, когда по Земле ходили мамонты, а вечные льды достигали южных морей, жил охотник по имени Кенаи. Он был храбр и ловок, но однажды прогневил Великих Духов, убив медведицу — священного для него зверя, чей тотем он носил на шее. Тогда духи предков в наказание превратили в медведя самого Кенаи. Теперь он не может говорить по-человечески, за ним охотится его собственный брат, а еще к нему прибился озорной медвежонок Кода, не желающий оставить героя в покое. Но духи не зря свели Кенаи с Кодой — в час, когда охотник увидит в медвежонке родственную душу, он сможет снова стать человеком…
Источник/Качество: DVDRip
Формат: AVI
Видео кодек: XviD
Аудио кодек: AC3
Видео: 720x432 (1.67:1), 25 fps, XviD build 47 ~1998 kbps avg, 0.26 bit/pixel
Аудио: 48 kHz, AC3 Dolby Digital, 3/2 (L,C,R,l,r) + LFE ch, ~384 kbps
General
Complete name : D:\Видео\Фильмы\братец медвежонок 1,2\БРАТЕЦ МЕДВЕЖОНОК.avi
Format : AVI
Format/Info : Audio Video Interleave
File size : 1.36 GiB
Duration : 1h 21mn
Overall bit rate : 2 389 Kbps
Writing application : VirtualDubMod 1.5.4.1 (build 2178/release)
Writing library : VirtualDubMod build 2178/release
Video
ID : 0
Format : MPEG-4 Visual
Format profile : Advanced [email protected]
Format settings, BVOP : Yes
Format settings, QPel : No
Format settings, GMC : No warppoints
Format settings, Matrix : Custom
Codec ID : XVID
Codec ID/Hint : XviD
Duration : 1h 21mn
Bit rate : 1 998 Kbps
Width : 720 pixels
Height : 432 pixels
Display aspect ratio : 1.667
Frame rate : 25.000 fps
Color space : YUV
Chroma subsampling : 4:2:0
Bit depth : 8 bits
Scan type : Progressive
Compression mode : Lossy
Bits/(Pixel*Frame) : 0.257
Stream size : 1.14 GiB (84%)
Writing library : XviD 1.2.0.dev47 (UTC 2006-11-01)
Audio
ID : 1
Format : AC-3
Format/Info : Audio Coding 3
Mode extension : CM (complete main)
Codec ID : 2000
Duration : 1h 21mn
Bit rate mode : Constant
Bit rate : 384 Kbps
Channel(s) : 6 channels
Channel positions : Front: L C R, Side: L R, LFE
Sampling rate : 48.0 KHz
Bit depth : 16 bits
Compression mode : Lossy
Delay relative to video : 15ms
Stream size : 224 MiB (16%)
Alignment : Split accross interleaves
Interleave, duration : 96 ms (2.40 video frames)
Interleave, preload duration : 96 ms
Language : Russian



Братец медвежонок 2: Лоси в бегах / Brother Bear 2
Год выпуска:2006
Производство:США
Жанр: фэнтези, приключения, семейный, мультфильм
Продолжительность: 01:21:37
Перевод: Профессиональный (полное дублирование)
Оригинальный аудиопоток: Отсутствует
Режиссер: Бен Глюк/Ben Glyuk
В ролях: Патрик Демпси,Мэнди Мур,Джереми Суарес,Рик Морэнис,Дэйв Томас,Андреа Мартин,Кэтрин О’Хара,Ванда Сайкес,Уэнди Мэлик
Описание: Вот и долгожданное продолжение, как раз то, чего ждали два непутевых лося, Рутт и Тук, ох и в серьезную переделку вляпались эти ребята, да еще и братца медвежонка втянули, а вот как он выпутается и друзей выручит, это вы увидите в продолжении диснеевского блокбастера...
Источник/Качество:DVDRip
Формат: AVI
Видео кодек: XviD
Аудио кодек: AC3
Видео: 704x384 (1.83:1), 25 fps, XviD MPEG-4 ~2314 kbps avg, 0.34 bit/pixel
Аудио:48 kHz, AC3 Dolby Digital, 3/2 (L,C,R,l,r) + LFE ch, ~448 kbps
General
Complete name : D:\Видео\Фильмы\Brother Bear Diology\БРАТЕЦ МЕДВЕЖОНОК 2.avi
Format : AVI
Format/Info : Audio Video Interleave
File size : 1.36 GiB
Duration : 1h 10mn
Overall bit rate : 2 772 Kbps
Writing application : VirtualDubModRus 1.5.10.2 (build 2542/release)
Writing library : VirtualDubMod build 2542/release
Video
ID : 0
Format : MPEG-4 Visual
Format profile : Advanced [email protected]
Format settings, BVOP : Yes
Format settings, QPel : No
Format settings, GMC : No warppoints
Format settings, Matrix : Default (MPEG)
Muxing mode : Packed bitstream
Codec ID : XVID
Codec ID/Hint : XviD
Duration : 1h 10mn
Bit rate : 2 315 Kbps
Width : 704 pixels
Height : 384 pixels
Display aspect ratio : 16:9
Frame rate : 25.000 fps
Color space : YUV
Chroma subsampling : 4:2:0
Bit depth : 8 bits
Scan type : Progressive
Compression mode : Lossy
Bits/(Pixel*Frame) : 0.342
Stream size : 1.14 GiB (83%)
Writing library : XviD 1.2.0.dev47 (UTC 2006-11-01)
Audio
ID : 1
Format : AC-3
Format/Info : Audio Coding 3
Mode extension : CM (complete main)
Codec ID : 2000
Duration : 1h 10mn
Bit rate mode : Constant
Bit rate : 448 Kbps
Channel(s) : 6 channels
Channel positions : Front: L C R, Side: L R, LFE
Sampling rate : 48.0 KHz
Bit depth : 16 bits
Compression mode : Lossy
Delay relative to video : 12ms
Stream size : 225 MiB (16%)
Alignment : Split accross interleaves
Interleave, duration : 40 ms (1.00 video frame)
Interleave, preload duration : 500 ms



Download / Скачать

Хотите скачать бесплатно? Зарегистрируйтесь на сайте (ссылка на регистрацию). Pirat.ca - самый быстрый торрент трекер в рунете!

Как скачивать  ·   Что такое торрент  ·   Рейтинг и ограничения



Последний раз редактировалось: Dj NIKI (2011-11-07 21:29), всего редактировалось 1 раз

Пост 03-Ноя-2011 16:14 (спустя 2 часа 56 минут)

Топик был перенесен из форума Мультипликация в форум Зарубежные полнометражные мультфильмы

bonifaci
 

Hugin

Морской Волк

163

Пост 27-Фев-2012 21:23 (спустя 3 месяца 24 дня)

[Q] 

[Профиль]  [ЛС] 

kinstintin

Гроза морей

Пост 18-Июл-2012 23:10 (спустя 4 месяца 20 дней)

[Q] 

[Профиль]  [ЛС] 

kinstintin

Гроза морей

Пост 18-Июл-2012 23:11 (спустя 1 минута)

[Q] 

уф... все-таки скачалось...
[Профиль]  [ЛС] 

erchine

44808

Пост 19-Июл-2012 00:40 (спустя 1 час 28 минут)

[Q] 

Спасибо за раздачу!
Дисней / The Walt Disney Company
[Профиль]  [ЛС] 

kinstintin

Гроза морей

Пост 19-Дек-2012 20:30 (спустя 5 месяцев)

[Q] 

Спасибо за мультики! смотрим всей семьей!
[Профиль]  [ЛС] 

Dj NIKI ®

Флибустьер

3041

Пост 20-Дек-2012 21:36 (спустя 1 день 1 час)

[Q] 

kinstintin, Не за что! Наслаждайтесь!

_________________
[Профиль]  [ЛС] 

black kat

Лоцман

Пост 08-Июл-2013 13:44 (спустя 6 месяцев 18 дней)

[Q] 

СПАСИБО!!!!!!!!!!!!!
[Профиль]  [ЛС] 

Вут

Морской Волк

72

Пост 08-Авг-2013 13:12 (спустя 30 дней)

[Q] 

Отличный мультик! Спасибо!!! Автору респект!!! Лови бочку
[Профиль]  [ЛС] 

stas-burn

Корсар

Пост 24-Дек-2013 12:31 (спустя 4 месяца 15 дней)

[Q] 

Спасибо! Автору респект!!!
[Профиль]  [ЛС] 

NikolaySergeeviz

Морской Волк

Пост 04-Фев-2014 21:08 (спустя 1 месяц 11 дней)

[Q] 

Сын посмотрел.
[Профиль]  [ЛС] 

Black_Ogre150

Штурман

Пост 26-Фев-2015 20:29 (спустя 1 год)

[Q] 

Отличные мульты ! !COOL!
[Профиль]  [ЛС] 
Показать сообщения:    
Ответить на тему

Текущее время: Сегодня 20:05

Часовой пояс: GMT + 4



Вы не можете начинать темы
Вы не можете отвечать на сообщения
Вы не можете редактировать свои сообщения
Вы не можете удалять свои сообщения
Вы не можете голосовать в опросах
Вы не можете прикреплять файлы к сообщениям
Вы не можете скачивать файлы

▼ Вниз