ML
     
  Уважаемый Гость!
Вы можете поддержать проект и зарегистрироваться у наших партнеров - онлайн-стратегия MyLands. При регистрации в игре Вы получите код, который сможете активировать после регистрации на pirat.ca и получить 1000 дублонов.

Ваш код:
a261790f23fb05d13d060bdee9cb70d1451a6d3d
 
     

Чудо-Женщина / Wonder Woman (Лоурен Монтгомери / Lauren Montgomery) [2009 г., Мультфильм, Фантастика, Фэнтези, Боевик, Приключения, HDRip] (MVO)

Ответить на тему
 
Автор
Сообщение

Пост 03-Ноя-2011 22:38

[Q] 

Ksandr

Флибустьер

Чудо-Женщина / Wonder Woman
Год выпуска: 2009
Мировая премьера: 3 марта 2009
Производство: США
Жанр: Мультфильм, Фантастика, Фэнтези, Боевик, Приключения
Продолжительность: 01:13:39
Перевод: Профессиональный (многоголосый, закадровый)
Режиссер: Лоурен Монтгомери / Lauren Montgomery
В ролях: Кери Рассел, Натан Филлион, Альфред Молина, Розарио Доусон, Марж Хелгенбергер, Оливер Плэтт, Вирджиния Мэдсен, Скай Аренс, Джон Ди Маджио, Джулианна Гроссман
Описание: Арес, бог войны, был повергнут и заключен в тюрьму на затерянном острове амазонок… Военный истребитель терпит крушение на неизведанном острове. Пилот чудом выживает, но сразу же попадает в плен к недружелюбным амазонкам. Рассудительная королева принимает решение отправить мужчину во внешний мир, и на это опасное задание просится ее дочь, Диана, в силе и ловкости которой нет равных. К этому времени озлобленный Арес вырывается из темницы…
Источник/Качество: HDRip
Формат: AVI
Видео кодек: XviD
Аудио кодек: MP3
Видео: MPEG-4 Visual, XviD, 688x384, ~1280 kbps, 23,976 fps
Аудио: MPEG Audio, 2ch, 128 kbps, 48,0 КГц
Общее
Полное имя : Wonder Woman[pirat.ca].avi
Формат : AVI
Формат/Информация : Audio Video Interleave
Размер файла : 746 Мбайт
Продолжительность : 1 ч. 13 м.
Общий поток : 1417 Кбит/сек
Программа кодирования : VirtualDubMod 1.5.10.2 (build 2540/release)
Библиотека кодирования : VirtualDubMod build 2540/release
Видео
Идентификатор : 0
Формат : MPEG-4 Visual
Профиль формата : Advanced [email protected]
Параметр BVOP формата : 1
Параметр QPel формата : Нет
Параметр GMC формата : Без точки перехода
Параметр матрицы формата : Default (MPEG)
Идентификатор кодека : XVID
Идентификатор кодека/Подсказка : XviD
Продолжительность : 1 ч. 13 м.
Битрейт : 1280 Кбит/сек
Ширина : 688 пикселей
Высота : 384 пикселя
Соотношение сторон : 16:9
Частота кадров : 23,976 кадра/сек
Цветовое пространство : YUV
Субдискретизация насыщенности : 4:2:0
Битовая глубина : 8 бит
Тип развёртки : Прогрессивная
Метод сжатия : С потерями
Бит/(Пиксели*Кадры) : 0.202
Размер потока : 674 Мбайт (90%)
Библиотека кодирования : XviD 1.2.1 (UTC 2008-12-04)
Аудио
Идентификатор : 1
Формат : MPEG Audio
Версия формата : Version 1
Профиль формата : Layer 3
Идентификатор кодека : 55
Идентификатор кодека/Подсказка : MP3
Продолжительность : 1 ч. 13 м.
Вид битрейта : Постоянный
Битрейт : 128 Кбит/сек
Каналы : 2 канала
Частота : 48,0 КГц
Метод сжатия : С потерями
Размер потока : 67,4 Мбайт (9%)
Выравнивание : Соединение по промежуткам
Продолжительность промежутка : 42 мс. (1,00 видеокадр)
Время предзагрузки промежутка : 504 мс.
Библиотека кодирования : LAME3.98r
Настройки программы : -m s -V 4 -q 2 -lowpass 17 -b 128


Download / Скачать

Хотите скачать бесплатно? Зарегистрируйтесь на сайте (ссылка на регистрацию). Pirat.ca - самый быстрый торрент трекер в рунете!

Как скачивать  ·   Что такое торрент  ·   Рейтинг и ограничения



Последний раз редактировалось: Ksandr (2011-11-06 20:58), всего редактировалось 1 раз

Пост 03-Ноя-2011 22:49 (спустя 11 минут)

Топик был перенесен из форума Мультипликация в форум Зарубежные полнометражные мультфильмы

Sirota
 
Показать сообщения:    
Ответить на тему

Текущее время: Сегодня 20:01

Часовой пояс: GMT + 4



Вы не можете начинать темы
Вы не можете отвечать на сообщения
Вы не можете редактировать свои сообщения
Вы не можете удалять свои сообщения
Вы не можете голосовать в опросах
Вы не можете прикреплять файлы к сообщениям
Вы не можете скачивать файлы

▼ Вниз