ML
     
  Уважаемый Гость!
Вы можете поддержать проект и зарегистрироваться у наших партнеров - онлайн-стратегия MyLands. При регистрации в игре Вы получите код, который сможете активировать после регистрации на pirat.ca и получить 1000 дублонов.

Ваш код:
2932e5898d0a27592397f70b82a5834d1e70ea19
 
     

Несокрушимый Железный Человек / The Invincible Iron Man (Патрик Арчибальд, Джей Олива, Фрэнк Пор / Patrick Archibald, Jay Oliva, Frank Paur) [2007 г., Мультфильм, Фантастика, Фэнтези, Боевик, Приключения, BDRip-AVC] (MVO)

Ответить на тему
 
Автор
Сообщение

Пост 03-Ноя-2011 23:03

[Q] 

Ksandr

Флибустьер

Несокрушимый Железный Человек / The Invincible Iron Man
Год выпуска: 2007
Мировая премьера: 23 января 2007
Производство: США
Жанр: Мультфильм, Фантастика, Фэнтези, Боевик, Приключения
Продолжительность: 01:23:02
Перевод: Профессиональный (многоголосый, закадровый)
Режиссер: Патрик Арчибальд, Джей Олива, Фрэнк Пор / Patrick Archibald, Jay Oliva, Frank Paur
В ролях: Марк Уорден, Гвендолин Ео, Фред Татаскьор, Родни Солсберри, Элиза Габриелли, Джон МакКук, Джеймс Си, Стивен Мендилло, Джон ДеМита, Джордж Чунг
Описание: Искусствовед, специализирующийся по странам Востока миллиардер Тони Старк, вот уже несколько лет плодотворно работает над главным проектом своей жизни — возрождением древнего китайского города, императором которого был великий Мандарин, оставшийся в истории, как самый жестокий правитель Китая. Древняя китайская легенда гласит, что непобедимый император, заключив договор с силами тьмы, получил от них бессмертие и могущество, но потом был повержен и предан забвению. И только через несколько тысяч лет Великий Император вновь обретёт свою силу и в этот день люди в последний раз увидят солнечный свет…
Источник/Качество: BDRip-AVC
Формат: MKV
Видео кодек: H.264
Аудио кодек: AC3
Видео: 1024x576, ~1969 kbps, 23,976 fps
Аудио: 6ch, 384 kbps, 48,0 КГц
Общее
Уникальный идентификатор : 210331559288797524163972450967410423063 (0x9E3C62841D1CFE74A923D44AEB27B517)
Полное имя : The Invincible Iron Man[pirat.ca].mkv
Формат : Matroska
Версия формата : Version 1
Размер файла : 1,37 Гбайт
Продолжительность : 1 ч. 23 м.
Общий поток : 2356 Кбит/сек
Дата кодирования : UTC 2008-10-04 13:33:45
Программа кодирования : mkvmerge v2.1.0 ('Another Place To Fall') built on Aug 19 2007 13:40:07
Библиотека кодирования : libebml v0.7.7 + libmatroska v0.8.1
Видео
Идентификатор : 1
Формат : AVC
Формат/Информация : Advanced Video Codec
Профиль формата : [email protected]
Параметр CABAC формата : Да
Параметр ReFrames формата : 2 кадра
Идентификатор кодека : V_MPEG4/ISO/AVC
Продолжительность : 1 ч. 23 м.
Битрейт : 1969 Кбит/сек
Ширина : 1024 пикселя
Высота : 576 пикселей
Соотношение сторон : 16:9
Частота кадров : 23,976 кадра/сек
Цветовое пространство : YUV
Субдискретизация насыщенности : 4:2:0
Битовая глубина : 8 бит
Тип развёртки : Прогрессивная
Бит/(Пиксели*Кадры) : 0.139
Размер потока : 1,12 Гбайт (82%)
Библиотека кодирования : x264 core 65 r996M c89bc90
Настройки программы : cabac=1 / ref=1 / deblock=1:3:3 / analyse=0x3:0x133 / me=hex / subme=6 / psy_rd=1.0:0.0 / mixed_ref=0 / me_range=16 / chroma_me=1 / trellis=0 / 8x8dct=1 / cqm=0 / deadzone=21,11 / chroma_qp_offset=-4 / threads=3 / nr=0 / decimate=1 / mbaff=0 / bframes=1 / b_pyramid=0 / b_adapt=2 / b_bias=0 / direct=2 / wpredb=1 / keyint=250 / keyint_min=25 / scenecut=40(pre) / rc=2pass / bitrate=1969 / ratetol=1.0 / qcomp=0.60 / qpmin=10 / qpmax=51 / qpstep=4 / cplxblur=20.0 / qblur=0.5 / ip_ratio=1.40 / pb_ratio=1.30 / aq=1:1.00 / zones=0,2713,q=15/117112,119471,q=15
Язык : English
Аудио
Идентификатор : 2
Формат : AC-3
Формат/Информация : Audio Coding 3
Расширение режима : CM (complete main)
Идентификатор кодека : A_AC3
Продолжительность : 1 ч. 23 м.
Вид битрейта : Постоянный
Битрейт : 384 Кбит/сек
Каналы : 6 каналов
Расположение каналов : Front: L C R, Side: L R, LFE
Частота : 48,0 КГц
Битовая глубина : 16 бит
Метод сжатия : С потерями
Размер потока : 228 Мбайт (16%)


Download / Скачать

Хотите скачать бесплатно? Зарегистрируйтесь на сайте (ссылка на регистрацию). Pirat.ca - самый быстрый торрент трекер в рунете!

Как скачивать  ·   Что такое торрент  ·   Рейтинг и ограничения



Последний раз редактировалось: Ksandr (2011-11-06 20:52), всего редактировалось 1 раз

Пост 03-Ноя-2011 23:27 (спустя 23 минуты)

Топик был перенесен из форума Мультипликация в форум Зарубежные полнометражные мультфильмы

zyyx
 

M_ilkiv

Морской Волк

Пост 22-Май-2012 15:46 (спустя 6 месяцев 18 дней)

[Q] 


[Профиль]  [ЛС] 

kalmyk73

Морской Волк

Пост 09-Июн-2012 11:08 (спустя 17 дней)

[Q] 


_________________
Я люблю тебя жизнь ну а ты меня СНОВА И СНОВА.
[Профиль]  [ЛС] 

sarajly

Лоцман

Пост 29-Авг-2012 14:46 (спустя 2 месяца 20 дней)

[Q] 

Дайте раздачу,
[Профиль]  [ЛС] 

sarajly

Лоцман

Пост 29-Авг-2012 14:47 (спустя 1 минута)

[Q] 

anime68
[Профиль]  [ЛС] 

CHARLI2236

1096

Пост 28-Окт-2012 22:06 (спустя 1 месяц 30 дней)

[Q] 

спасибо

_________________
[Профиль]  [ЛС] 
Показать сообщения:    
Ответить на тему

Текущее время: Сегодня 07:59

Часовой пояс: GMT + 4



Вы не можете начинать темы
Вы не можете отвечать на сообщения
Вы не можете редактировать свои сообщения
Вы не можете удалять свои сообщения
Вы не можете голосовать в опросах
Вы не можете прикреплять файлы к сообщениям
Вы не можете скачивать файлы

▼ Вниз