ML
     
  Уважаемый Гость!
Вы можете поддержать проект и зарегистрироваться у наших партнеров - онлайн-стратегия MyLands. При регистрации в игре Вы получите код, который сможете активировать после регистрации на pirat.ca и получить 1000 дублонов.

Ваш код:
0fcd44bd35319f69313aa6e53b31c51cbff1c942
 
     

Новые Мстители / Ultimate Avengers (Курт Геда, Стивен Е. Гордон, Боб Ричардсон / Curt Geda, Steven E. Gordon, Bob Richardson) [2006 г., Мультфильм, Фантастика, Боевик, Приключения, BDRip] (MVO)

Ответить на тему
 
Автор
Сообщение

Пост 04-Ноя-2011 00:24

[Q] 

Ksandr

Флибустьер

Новые Мстители / Ultimate Avengers
Год выпуска: 2006
Мировая премьера: 21 февраля 2006
Производство: США
Жанр: Мультфильм, Фантастика, Боевик, Приключения
Продолжительность: 01:11:21
Перевод: Профессиональный (многоголосый, закадровый)
Режиссер: Курт Геда, Стивен Е. Гордон, Боб Ричардсон / Curt Geda, Steven E. Gordon, Bob Richardson
В ролях: Джастин Гросс, Грей ДеЛайл, Майкл Масси, Оливия д’Або, Марк Уорден, Нэн МакНамара, Нолан Норт, Андре Уэр, David Boat, Фред Татаскьор
Описание: В конце Второй Мировой войны молодой военный по имени Стив Роджерс стал частью эксперимента, благодаря которому США надеялись подавить последние очаги сопротивления нацистов на втором фронте. Результатом эксперимента стал сверхчеловек, «Капитан Америка», оставшийся Стивом Роджерсом лишь в повседневной жизни.
Но на первом же задании, атакуя секретный бункер фашистов, Роджерс лицом к лицу сталкивается с таинственным генералом Кляйзером — неуязвимым мутантом, вставшим во главе отряда чудовищ. Ценой собственной жизни Роджерсу удается обезвредить Кляйзера, но сам он бесследно исчезает, и его считают погибшим. Спустя 60 лет научный отдел Пентагона, проводя исследования во льдах Антарктики, случайно находит человека, вмерзшего в огромную льдину.
Вскоре выясняется, что этот человек не кто иной, как Стив Роджерс. Сверхчеловеческие способности помогли ему выжить, и теперь «Капитан Америка» должен возглавить целый отряд супергероев, чтобы противостоять генералу Кляйзеру, который успел набраться сил, и теперь стремится захватить одну из центральных военных баз.
Источник/Качество: BDRip
Формат: AVI
Видео кодек: XviD
Аудио кодек: AC3
Видео: 720x400, ~1989 kbps, 23,976 fps
Аудио: 2ch, 192 kbps, 48,0 КГц
Общее
Полное имя : Ultimate Avengers[pirat.ca].avi
Формат : AVI
Формат/Информация : Audio Video Interleave
Размер файла : 1,09 Гбайт
Продолжительность : 1 ч. 11 м.
Общий поток : 2191 Кбит/сек
Название фильма : Новые Мстители / Защитники справедливости / Ultimate Avengers (2006) BDRip
Режиссёр : Orbit
Программа кодирования : VirtualDubMod 1.5.10.2 (build 2542/release)
Правообладатель : hqclub.net
Примечание : 07.05.2011
Видео
Идентификатор : 0
Формат : MPEG-4 Visual
Профиль формата : Advanced [email protected]
Параметр BVOP формата : 1
Параметр QPel формата : Нет
Параметр GMC формата : Без точки перехода
Параметр матрицы формата : Выборочная
Идентификатор кодека : XVID
Идентификатор кодека/Подсказка : XviD
Продолжительность : 1 ч. 11 м.
Битрейт : 1989 Кбит/сек
Ширина : 720 пикселей
Высота : 400 пикселей
Соотношение сторон : 16:9
Частота кадров : 23,976 кадра/сек
Цветовое пространство : YUV
Субдискретизация насыщенности : 4:2:0
Битовая глубина : 8 бит
Тип развёртки : Прогрессивная
Метод сжатия : С потерями
Бит/(Пиксели*Кадры) : 0.288
Размер потока : 1015 Мбайт (91%)
Библиотека кодирования : XviD 63
Аудио
Идентификатор : 1
Формат : AC-3
Формат/Информация : Audio Coding 3
Расширение режима : CM (complete main)
Идентификатор кодека : 2000
Продолжительность : 1 ч. 11 м.
Вид битрейта : Постоянный
Битрейт : 192 Кбит/сек
Каналы : 2 канала
Расположение каналов : Front: L R
Частота : 48,0 КГц
Битовая глубина : 16 бит
Метод сжатия : С потерями
Размер потока : 98,0 Мбайт (9%)
Выравнивание : Разделение по промежуткам
Продолжительность промежутка : 42 мс. (1,00 видеокадр)
Время предзагрузки промежутка : 500 мс.


Download / Скачать

Хотите скачать бесплатно? Зарегистрируйтесь на сайте (ссылка на регистрацию). Pirat.ca - самый быстрый торрент трекер в рунете!

Как скачивать  ·   Что такое торрент  ·   Рейтинг и ограничения



Последний раз редактировалось: Ksandr (2011-11-06 20:54), всего редактировалось 1 раз

Пост 04-Ноя-2011 00:44 (спустя 19 минут)

Топик был перенесен из форума Мультипликация в форум Зарубежные полнометражные мультфильмы

zyyx
 

alex3000

Шкипер

Пост 30-Апр-2012 20:43 (спустя 5 месяцев 26 дней)

[Q] 

[Профиль]  [ЛС] 

OlegSh

Морской Волк

Пост 02-Май-2012 10:15 (спустя 1 день 13 часов)

[Q] 

интересно...
[Профиль]  [ЛС] 

Лукинофф

Штурман

Пост 08-Апр-2013 15:51 (спустя 11 месяцев 6 дней)

[Q] 

Дайте скорости )
[Профиль]  [ЛС] 

Wolf111

57101

Пост 08-Апр-2013 19:32 (спустя 3 часа)

[Q] 

[Профиль]  [ЛС] 

CHARLI2236

1096

Пост 11-Сен-2013 18:14 (спустя 5 месяцев 2 дня)

[Q] 

подключаюсь AntiZip 5

_________________
[Профиль]  [ЛС] 

Maks_e

Корсар

69

Пост 14-Май-2015 07:32 (спустя 1 год 8 месяцев)

[Q] 

Спасибо!!! Супер!
[Профиль]  [ЛС] 

stuart666

Штурман

Пост 30-Окт-2015 21:13 (спустя 5 месяцев 16 дней)

[Q] 

Пиратка рулит!
[Профиль]  [ЛС] 
Показать сообщения:    
Ответить на тему

Текущее время: Сегодня 02:12

Часовой пояс: GMT + 4



Вы не можете начинать темы
Вы не можете отвечать на сообщения
Вы не можете редактировать свои сообщения
Вы не можете удалять свои сообщения
Вы не можете голосовать в опросах
Вы не можете прикреплять файлы к сообщениям
Вы не можете скачивать файлы

▼ Вниз