ML
     
  Уважаемый Гость!
Вы можете поддержать проект и зарегистрироваться у наших партнеров - онлайн-стратегия MyLands. При регистрации в игре Вы получите код, который сможете активировать после регистрации на pirat.ca и получить 1000 дублонов.

Ваш код:
500cb7bd8d2cec9a8aba647a87ce41c4b76f06bd
 
     

101 далматинец / One Hundred and One Dalmatians (Клайд Джероними, Хэмильтон Ласки, Вольфганг Райтерман / Clyde Geronimi, Hamilton Luske, Wolfgang Reitherman) [1961 г., приключения, семейный, мультфильм, DVDRip-AVC] (Dub)

Ответить на тему
 
Автор
Сообщение

Пост 04-Ноя-2011 00:32

[Q] 

Delf_HL

Лоцман

101 далматинец / One Hundred and One Dalmatians
Год выпуска: 1961
Производство: США
Жанр: приключения, семейный, мультфильм
Продолжительность: 01:16:31
Перевод: Профессиональный (полное дублирование)
Режиссер: Клайд Джероними, Хэмильтон Ласки, Вольфганг Райтерман / Clyde Geronimi, Hamilton Luske, Wolfgang Reitherman
Описание: Трогательная и невероятно интригующая история поиска и спасения щенят далматинских догов, которые были похищены у своих хозяев по приказу злобной фурии Круэллы Де Вил.
Алчная модница задумала сшить себе пятнистый меховой наряд из шкурок бедных малюток. Однако животные, объединившись, ухитряются проучить ее.
Источник/Качество: DVDRip-AVC
Формат: MKV
Видео кодек: H.26x
Аудио кодек: AC3
Видео: 720*574, 2434Kb/s, 25 fps
Аудио: AC3 448Kb/s, 6 каналов, 48КГц
Аудио #2: AC3 448Kb/s, 6 каналов, 48КГц
Уникальный идентификатор : 218421420253513750288990050089930173557 (0xA4526F74D043CA0F8613E4E22261AC75)
Полное имя : I:\Мультфильмы\101 далматинец.mkv
Формат : Matroska
Версия формата : Version 2
Размер файла : 1,82 Гбайт
Продолжительность : 1 ч. 16 м.
Общий поток : 3398 Кбит/сек
Название фильма : 101 далматинец
Дата кодирования : UTC 2010-01-11 22:41:31
Программа кодирования : mkvmerge v3.0.0 ('Hang up your Hang-Ups') built on Dec 12 2009 15:20:35
Библиотека кодирования : libebml v0.7.9 + libmatroska v0.8.1
Видео
Идентификатор : 1
Формат : AVC
Формат/Информация : Advanced Video Codec
Профиль формата : [email protected]
Параметр CABAC формата : Да
Параметр ReFrames формата : 10 кадров
Идентификатор кодека : V_MPEG4/ISO/AVC
Продолжительность : 1 ч. 16 м.
Битрейт : 2500 Кбит/сек
Ширина : 720 пикселей
Высота : 574 пикселя
Соотношение сторон : 4:3
Частота кадров : 25,000 кадров/сек
Цветовое пространство : YUV
Субдискретизация насыщенности : 4:2:0
Битовая глубина : 8 бит
Тип развёртки : Прогрессивная
Бит/(Пиксели*Кадры) : 0.242
Размер потока : 1,30 Гбайт (72%)
Заголовок : One Hundred and One Dalmatians
Библиотека кодирования : x264 core 80 r1376 3feaec2
Настройки программы : cabac=1 / ref=10 / deblock=1:0:0 / analyse=0x3:0x133 / me=umh / subme=9 / psy=1 / psy_rd=1.0:0.0 / mixed_ref=1 / me_range=16 / chroma_me=1 / trellis=2 / 8x8dct=1 / cqm=0 / deadzone=21,11 / fast_pskip=0 / chroma_qp_offset=-4 / threads=3 / sliced_threads=0 / nr=0 / decimate=1 / mbaff=0 / constrained_intra=0 / bframes=12 / b_pyramid=2 / b_adapt=2 / b_bias=0 / direct=3 / wpredb=1 / wpredp=2 / keyint=250 / keyint_min=25 / scenecut=40 / rc_lookahead=40 / rc=2pass / mbtree=1 / bitrate=2500 / ratetol=1.0 / qcomp=0.60 / qpmin=10 / qpmax=51 / qpstep=4 / cplxblur=20.0 / qblur=0.5 / ip_ratio=1.40 / aq=1:1.00
Язык : English
Аудио #1
Идентификатор : 2
Формат : AC-3
Формат/Информация : Audio Coding 3
Расширение режима : CM (complete main)
Идентификатор кодека : A_AC3
Продолжительность : 1 ч. 16 м.
Вид битрейта : Постоянный
Битрейт : 448 Кбит/сек
Каналы : 6 каналов
Расположение каналов : Front: L C R, Side: L R, LFE
Частота : 48,0 КГц
Битовая глубина : 16 бит
Метод сжатия : С потерями
Задержка видео : 1 с. 700 мс.
Размер потока : 245 Мбайт (13%)
Заголовок : Дубляж
Язык : Russian
Аудио #2
Идентификатор : 3
Формат : AC-3
Формат/Информация : Audio Coding 3
Расширение режима : CM (complete main)
Идентификатор кодека : A_AC3
Продолжительность : 1 ч. 16 м.
Вид битрейта : Постоянный
Битрейт : 448 Кбит/сек
Каналы : 6 каналов
Расположение каналов : Front: L C R, Side: L R, LFE
Частота : 48,0 КГц
Битовая глубина : 16 бит
Метод сжатия : С потерями
Задержка видео : 1 с. 700 мс.
Размер потока : 245 Мбайт (13%)
Заголовок : Original
Язык : English







Download / Скачать

Хотите скачать бесплатно? Зарегистрируйтесь на сайте (ссылка на регистрацию). Pirat.ca - самый быстрый торрент трекер в рунете!

Как скачивать  ·   Что такое торрент  ·   Рейтинг и ограничения



Последний раз редактировалось: Delf_HL (2011-11-09 10:52), всего редактировалось 3 раз(а)

Delf_HL ®

Лоцман

75

Пост 04-Ноя-2011 01:23 (спустя 50 минут)

[Q] 

КАКИЕ РАЗМЕРЫ ДОПУСТИМЫ? ЭТО МОЙ ПЕРВЫЙ РЕЛИЗ НА ПИРАТКЕ. НА МОЕМ ТРЕКЕРЕ ВСЕ НЕМНОГО ПО-ДРУГОМУ.НЕ СУДИТЕ СТРОГО, А ЛУЧШЕ ПОПРАВЛЯЙТЕ, ЕСТЬ ЖЕЛАНИЕ СИДИРОВАТЬ, ПРИЧЕМ 24/7.РАНЬШЕ И НЕ ПРОБЫВАЛ ВЫЛАЖИВАТЬ, НО СЕЙЧАС ПОПРОБУЮ ПОДМОЧЬ ВОССТАНОВИТЬ БЫЛУЮ СЛАВУ НАШЕМУ ЛЮБИМОМУ "ЛЕТУЧЕМУ ГОЛЛАНДЦУ"!
[Профиль]  [ЛС] 

Пост 04-Ноя-2011 02:05 (спустя 42 минуты)

Топик был перенесен из форума Мультипликация в форум Зарубежные полнометражные мультфильмы

zyyx
 

Wolf111

57096

Пост 19-Июл-2012 21:08 (спустя 8 месяцев 15 дней)

[Q] 

Помогу раздавать
[Профиль]  [ЛС] 
Показать сообщения:    
Ответить на тему

Текущее время: Сегодня 01:48

Часовой пояс: GMT + 4



Вы не можете начинать темы
Вы не можете отвечать на сообщения
Вы не можете редактировать свои сообщения
Вы не можете удалять свои сообщения
Вы не можете голосовать в опросах
Вы не можете прикреплять файлы к сообщениям
Вы не можете скачивать файлы

▼ Вниз