ML
     
  Уважаемый Гость!
Вы можете поддержать проект и зарегистрироваться у наших партнеров - онлайн-стратегия MyLands. При регистрации в игре Вы получите код, который сможете активировать после регистрации на pirat.ca и получить 1000 дублонов.

Ваш код:
f612af22ea70acf5cbe90707ac5a076d215f8f7f
 
     

Новые Мстители 2 / Ultimate Avengers II (Уилл Меньот, Дик Сэбаст, Боб Ричардсон / Will Meugniot, Dick Sebast, Bob Richardson) [2006 г., Мультфильм, Фантастика, Фэнтези, Боевик, Приключения, BDRip] (MVO)

Ответить на тему
 
Автор
Сообщение

Пост 04-Ноя-2011 00:37

[Q] 

Ksandr

Флибустьер

Новые Мстители 2 / Ultimate Avengers II
Год выпуска: 2006
Мировая премьера: 2 июля 2006
Производство: США
Жанр: Мультфильм, Фантастика, Фэнтези, Боевик, Приключения
Продолжительность: 01:12:47
Перевод: Профессиональный (многоголосый, закадровый)
Режиссер: Уилл Меньот, Дик Сэбаст, Боб Ричардсон / Will Meugniot, Dick Sebast, Bob Richardson
В ролях: Джастин Гросс, Грей ДеЛайл, Майкл Масси, Марк Уорден, Оливия д’Або, Нэн МакНамара, Нолан Норт, Андре Уэр, David Boat, Фред Татаскьор
Описание: Команда супергероев «Капитана Америка» отправляется в Африку, где был вероломно убит король одного из древних племен. Теперь смертельная опасность угрожает его сыну — Черной Пантере. Именно ему предстоит унаследовать трон и сверхъестественные способности отца.
Генерал Кляйзер, желая обрести мировое господство, стремится завладеть могучим артефактом, который мужественно защищает племя Пантеры. Но выстоять против могучей армии Кляйзера практически невозможно… Только с помощью знаменитых героев комиксов Марвел у Черной Пантеры есть шанс спасти мир от катастрофы.
Источник/Качество: BDRip
Формат: AVI
Видео кодек: XviD
Аудио кодек: AC3
Видео: 720x400, ~1946 kbps, 23,976 fps
Аудио: 2ch, 192 kbps, 48,0 КГц
Общее
Полное имя : Ultimate Avengers II[pirat.ca].avi
Формат : AVI
Формат/Информация : Audio Video Interleave
Размер файла : 1,09 Гбайт
Продолжительность : 1 ч. 12 м.
Общий поток : 2147 Кбит/сек
Видео
Идентификатор : 0
Формат : MPEG-4 Visual
Профиль формата : Advanced [email protected]
Параметр BVOP формата : 1
Параметр QPel формата : Нет
Параметр GMC формата : Без точки перехода
Параметр матрицы формата : Выборочная
Идентификатор кодека : XVID
Идентификатор кодека/Подсказка : XviD
Продолжительность : 1 ч. 12 м.
Битрейт : 1946 Кбит/сек
Ширина : 720 пикселей
Высота : 400 пикселей
Соотношение сторон : 16:9
Частота кадров : 23,976 кадра/сек
Цветовое пространство : YUV
Субдискретизация насыщенности : 4:2:0
Битовая глубина : 8 бит
Тип развёртки : Прогрессивная
Метод сжатия : С потерями
Бит/(Пиксели*Кадры) : 0.282
Размер потока : 1013 Мбайт (91%)
Библиотека кодирования : XviD 63
Аудио
Идентификатор : 1
Формат : AC-3
Формат/Информация : Audio Coding 3
Расширение режима : CM (complete main)
Идентификатор кодека : 2000
Продолжительность : 1 ч. 12 м.
Вид битрейта : Постоянный
Битрейт : 192 Кбит/сек
Каналы : 2 канала
Расположение каналов : Front: L R
Частота : 48,0 КГц
Битовая глубина : 16 бит
Метод сжатия : С потерями
Размер потока : 100,0 Мбайт (9%)
Выравнивание : Разделение по промежуткам
Продолжительность промежутка : 42 мс. (1,00 видеокадр)
Время предзагрузки промежутка : 500 мс.


Download / Скачать

Хотите скачать бесплатно? Зарегистрируйтесь на сайте (ссылка на регистрацию). Pirat.ca - самый быстрый торрент трекер в рунете!

Как скачивать  ·   Что такое торрент  ·   Рейтинг и ограничения



Последний раз редактировалось: Ksandr (2012-01-07 13:56), всего редактировалось 2 раз(а)

Пост 04-Ноя-2011 00:55 (спустя 17 минут)

Топик был перенесен из форума Мультипликация в форум Зарубежные полнометражные мультфильмы

zyyx
 

alex3000

Шкипер

Пост 23-Апр-2012 11:40 (спустя 5 месяцев 19 дней)

[Q] 

[Профиль]  [ЛС] 

Wolf111

57134

Пост 12-Янв-2013 18:29 (спустя 8 месяцев 19 дней)

[Q] 

Помогу раздавать
[Профиль]  [ЛС] 
Показать сообщения:    
Ответить на тему

Текущее время: Сегодня 00:28

Часовой пояс: GMT + 4



Вы не можете начинать темы
Вы не можете отвечать на сообщения
Вы не можете редактировать свои сообщения
Вы не можете удалять свои сообщения
Вы не можете голосовать в опросах
Вы не можете прикреплять файлы к сообщениям
Вы не можете скачивать файлы

▼ Вниз