ML
     
  Уважаемый Гость!
Вы можете поддержать проект и зарегистрироваться у наших партнеров - онлайн-стратегия MyLands. При регистрации в игре Вы получите код, который сможете активировать после регистрации на pirat.ca и получить 1000 дублонов.

Ваш код:
a6d1ef7ff63e237add5a4c8b21d8aa937c5e9b4b
 
     

101 далматинец 2: Приключения Патча в Лондоне / 101 Dalmatians II: Patch's London Adventure (Джим Каммеруд, Брайан Смит / Jim Kammerud, Brian Smith) [2003 г., приключения, семейный, мультфильм, DVDRip, 576p] (Dub)

Ответить на тему
 
Автор
Сообщение

Пост 04-Ноя-2011 02:04

[Q] 

Delf_HL

Лоцман

101 далматинец 2: Приключения Патча в Лондоне / 101 Dalmatians II: Patch's London Adventure
Год выпуска: 2003
Производство: США
Жанр: приключения, семейный, мультфильм
Продолжительность: 01:10:47
Перевод: Профессиональный (дублированный)
Режиссер: Джим Каммеруд, Брайан Смит / Jim Kammerud, Brian Smith
Описание: Миллионерша Стервелла Де Виль, чья первая попытка похитить 101 далматинца и пошить из их шкурок роскошную шубу с треском провалилась, готовит новый дьявольский план по захвату славных песиков.
Она потирает руки в ожидании легкого успеха, но на пути негодяйки встают храбрый щенок Патч и его новый друг Громобой — четвероногая звезда экрана! Улицы Лондона никогда еще не видели такой заварушки: двое отважных, смекалистых псов против коварной, мерзкой, но ужасно глупой Де Виль. Бедная Стервелла! Не видать ей пятнистой шубы как своих ушей!
Источник/Качество: DVDRip
Формат: MKV
Стандарт разрешения: 576p
Видео кодек: H.26x
Аудио кодек: AC3
Видео: [email protected]*572, x264, 2435Kb/s, 25fps
Аудио: #1:AC3 384Kb/s 48КГц 6 каналов
Аудио #2: #2:AC3 448Kb/s 48КГц 6 каналов
Уникальный идентификатор : 184118987296915279225111253663063108656 (0x8A8406EFCC798077AC5E832D2D1A6C30)
Полное имя : I:\Мультфильмы\101 далматинец 2.mkv
Формат : Matroska
Версия формата : Version 2
Размер файла : 1,65 Гбайт
Продолжительность : 1 ч. 10 м.
Общий поток : 3334 Кбит/сек
Дата кодирования : UTC 2010-01-11 08:57:23
Программа кодирования : mkvmerge v3.0.0 ('Hang up your Hang-Ups') built on Dec 12 2009 15:20:35
Библиотека кодирования : libebml v0.7.9 + libmatroska v0.8.1
Видео
Идентификатор : 1
Формат : AVC
Формат/Информация : Advanced Video Codec
Профиль формата : [email protected]
Параметр CABAC формата : Да
Параметр ReFrames формата : 10 кадров
Идентификатор кодека : V_MPEG4/ISO/AVC
Продолжительность : 1 ч. 10 м.
Битрейт : 2500 Кбит/сек
Ширина : 688 пикселей
Высота : 572 пикселя
Соотношение сторон : 16:9
Частота кадров : 25,000 кадров/сек
Цветовое пространство : YUV
Субдискретизация насыщенности : 4:2:0
Битовая глубина : 8 бит
Тип развёртки : Прогрессивная
Бит/(Пиксели*Кадры) : 0.254
Размер потока : 1,20 Гбайт (73%)
Библиотека кодирования : x264 core 80 r1376 3feaec2
Настройки программы : cabac=1 / ref=10 / deblock=1:6:5 / analyse=0x3:0x133 / me=umh / subme=9 / psy=1 / psy_rd=0.4:0.0 / mixed_ref=1 / me_range=16 / chroma_me=1 / trellis=2 / 8x8dct=1 / cqm=0 / deadzone=21,11 / fast_pskip=0 / chroma_qp_offset=-4 / threads=3 / sliced_threads=0 / nr=0 / decimate=1 / mbaff=0 / constrained_intra=0 / bframes=11 / b_pyramid=2 / b_adapt=2 / b_bias=0 / direct=3 / wpredb=1 / wpredp=2 / keyint=250 / keyint_min=25 / scenecut=40 / rc_lookahead=40 / rc=2pass / mbtree=1 / bitrate=2500 / ratetol=1.0 / qcomp=0.80 / qpmin=10 / qpmax=51 / qpstep=4 / cplxblur=20.0 / qblur=0.5 / ip_ratio=1.40 / aq=1:0.70
Язык : English
Аудио #1
Идентификатор : 2
Формат : AC-3
Формат/Информация : Audio Coding 3
Расширение режима : CM (complete main)
Идентификатор кодека : A_AC3
Продолжительность : 1 ч. 10 м.
Вид битрейта : Постоянный
Битрейт : 384 Кбит/сек
Каналы : 6 каналов
Расположение каналов : Front: L C R, Side: L R, LFE
Частота : 48,0 КГц
Битовая глубина : 16 бит
Метод сжатия : С потерями
Размер потока : 194 Мбайт (12%)
Заголовок : Дубляж
Язык : Russian
Аудио #2
Идентификатор : 3
Формат : AC-3
Формат/Информация : Audio Coding 3
Расширение режима : CM (complete main)
Идентификатор кодека : A_AC3
Продолжительность : 1 ч. 10 м.
Вид битрейта : Постоянный
Битрейт : 448 Кбит/сек
Каналы : 6 каналов
Расположение каналов : Front: L C R, Side: L R, LFE
Частота : 48,0 КГц
Битовая глубина : 16 бит
Метод сжатия : С потерями
Размер потока : 227 Мбайт (13%)
Заголовок : Original
Язык : English









Download / Скачать

Хотите скачать бесплатно? Зарегистрируйтесь на сайте (ссылка на регистрацию). Pirat.ca - самый быстрый торрент трекер в рунете!

Как скачивать  ·   Что такое торрент  ·   Рейтинг и ограничения



Последний раз редактировалось: Delf_HL (2011-11-09 11:02), всего редактировалось 1 раз

Пост 04-Ноя-2011 03:19 (спустя 1 час 15 минут)

Топик был перенесен из форума Мультипликация в форум Зарубежные полнометражные мультфильмы

Чужая
 

Wolf111

57046

Пост 19-Июл-2012 21:07 (спустя 8 месяцев 15 дней)

[Q] 

Помогу с раздачей
[Профиль]  [ЛС] 
Показать сообщения:    
Ответить на тему

Текущее время: Сегодня 13:33

Часовой пояс: GMT + 4



Вы не можете начинать темы
Вы не можете отвечать на сообщения
Вы не можете редактировать свои сообщения
Вы не можете удалять свои сообщения
Вы не можете голосовать в опросах
Вы не можете прикреплять файлы к сообщениям
Вы не можете скачивать файлы

▼ Вниз