ML
     
  Уважаемый Гость!
Вы можете поддержать проект и зарегистрироваться у наших партнеров - онлайн-стратегия MyLands. При регистрации в игре Вы получите код, который сможете активировать после регистрации на pirat.ca и получить 1000 дублонов.

Ваш код:
a6d1ef7ff63e237add5a4c8b21d8aa937c5e9b4b
 
     

Коралина в Cтране Кошмаров / Coraline (Генри Селик/ Henry Selick) [2009 г., фэнтези, драма, приключения, семейный, мультфильм, DVDRip] (MVO)

Ответить на тему
 
Автор
Сообщение

Пост 04-Ноя-2011 04:20

[Q] 

Koralina

Коралина в Cтране Кошмаров / Coraline
Год выпуска: 2009
Мировая премьера: 5 февраля 2009
Производство: USA Laika Entertainment
Жанр: фэнтези, драма, приключения, семейный, мультфильм
Продолжительность: 01:46:32
Перевод: Профессиональный (многоголосый, закадровый)
Оригинальный аудиопоток: Английский
Режиссер: Генри Селик/ Henry Selick
В ролях: Дакота Фаннинг, Тери Хэтчер, Дженнифер Сoндерс, Доун Френч, Кит Дэвид, Джон Гудман, Роберт Бэйли мл., Йен МакШейн
Описание: Коралина, маленькая девочка попадает в другой мир, скрытый за секретной дверцей. Этот мир — ее альтернативная жизнь, которая не перестает ее радовать, все здесь хорошо, но до поры до времени. Однажды, она понимает что ее настоящим родителям за ее проделки угрожает смертельная опасность. Коралине придется найти выход из мира наполненного призраками в реальную жизнь…
Рейтинг MPAA: PG - Рекомендуется присутствие родителей
Рейтинг IMDB:
Рейтинг Kinopoisk:
Источник/Качество: DVDRip
Формат: AVC
Стандарт разрешения: 480p
Видео кодек: XviD
Аудио кодек: AAC
Видео: 897 Kbps, 592x320
Аудио: MP4, 127 kb/s (2 ch)
Субтитры: отсутствуют
General
Complete name : D:\FILMS\Coraline.mp4
Format : MPEG-4
Format profile : Base Media
Codec ID : isom
File size : 832 MiB
Duration : 1h 46mn
Overall bit rate : 1 093 Kbps
Movie name : Коралина в Cтране Кошмаров
Performer : Coraline
Genre : Kids & Family
Encoded date : 2009
Tagged date : UTC 2009-07-27 12:16:18
Writing application : XviD4PSP 5.0
Copyright : © jhonny2
Cover : Yes
desc : Коралина, маленькая девочка попадает в другой мир, скрытый за секретной дверцей. Этот мир — ее альтернативная жизнь, которая не перестает ее радовать, все здесь хорошо, но до поры до времени. Однажды, она понимает что ее настоящим родителям за ее проделки
ldes : Коралина, маленькая девочка попадает в другой мир, скрытый за секретной дверцей. Этот мир — ее альтернативная жизнь, которая не перестает ее радовать, все здесь хорошо, но до поры до времени. Однажды, она понимает что ее настоящим родителям за ее проделки угрожает смертельная опасность. Коралине придется найти выход из мира наполненного призраками в реальную жизнь…
stik : 0
iTunMOVI : <?xml version="1.0" encoding="UTF-8"?> / <!DOCTYPE plist PUBLIC "-//Apple//DTD PLIST 1.0//EN" "http://www.apple.com/DTDs/PropertyList-1.0.dtd"> / <plist version="1.0"> / <dict> / <key>cast</key> / <array> / <dict> / <key>name</key> / <string>Роли озвучивали: Дакота Фаннинг</string> / </dict> / <dict> / <key>name</key> / <string>Тери Хэтчер</string> / </dict> / <dict> / <key>name</key> / <string>Дженнифер Сoндерс</string> / </dict> / <dict> / <key>name</key> / <string>Доун Френч</string> / </dict> / <dict> / <key>name</key> / <string>Кит Дэвид</string> / </dict> / <dict> / <key>name</key> / <string>Джон Гудман</string> / </dict> / <dict> / <key>name</key> / <string>Роберт Бэйли мл.</string> / </dict> / <dict> / <key>name</key> / <string>Йен МакШейн</string> / </dict> / </array> / <key>directors</key> / <array> / <dict> / <key>name</key> / <string>Генри Селик</string> / </dict> / </array> / <key>producers</key> / <array> / <dict> / <key>name</key> / <string>Клер Дженнингс</string> / </dict> / <dict> / <key>name</key> / <string>Гарри Линден</string> / </dict> / <dict> / <key>name</key> / <string>Билл Мекэник</string> / </dict> / </array> / <key>screenwriters</key> / <array> / <dict> / <key>name</key> / <string>Генри Селик</string> / </dict> / <dict> / <key>name</key> / <string>Нил Гейман</string> / </dict> / </array> / </dict> / </plist>
iTunEXTC : mpaa|PG|200|
Video
ID : 1
Format : AVC
Format/Info : Advanced Video Codec
Format profile : [email protected]
Format settings, CABAC : No
Format settings, ReFrames : 6 frames
Codec ID : avc1
Codec ID/Info : Advanced Video Coding
Duration : 1h 40mn
Bit rate mode : Variable
Bit rate : 897 Kbps
Maximum bit rate : 4 083 Kbps
Width : 592 pixels
Height : 320 pixels
Display aspect ratio : 1.850
Frame rate mode : Constant
Frame rate : 23.976 fps
Resolution : 8 bits
Colorimetry : 4:2:0
Scan type : Progressive
Bits/(Pixel*Frame) : 0.198
Stream size : 646 MiB (78%)
Title : ration / 
Writing library : x264 core 68 r1181kMod 49bf767
Encoding settings : cabac=0 / ref=6 / deblock=1:-2:-1 / analyse=0x1:0x111 / me=umh / subme=9 / psy_rd=1.0:0.0 / mixed_ref=0 / me_range=16 / chroma_me=1 / trellis=0 / 8x8dct=0 / cqm=0 / deadzone=21,11 / chroma_qp_offset=-2 / threads=6 / nr=0 / decimate=1 / mbaff=0 / bframes=0 / keyint=250 / keyint_min=25 / scenecut=40 / rc=crf / crf=21.0000 / qcomp=0.60 / qpmin=10 / qpmax=51 / qpstep=4 / ip_ratio=1.40 / aq=1:1.00
Encoded date : UTC 2009-07-27 10:13:17
Tagged date : UTC 2009-07-27 12:17:23
Audio #1
ID : 2
Format : AAC
Format/Info : Advanced Audio Codec
Format version : Version 4
Format profile : LC
Format settings, SBR : No
Codec ID : 40
Duration : 1h 40mn
Bit rate mode : Variable
Bit rate : 127 Kbps
Maximum bit rate : 202 Kbps
Channel(s) : 2 channels
Channel positions : L R
Sampling rate : 48.0 KHz
Stream size : 91.3 MiB (11%)
Language : Russian
Encoded date : UTC 2009-07-27 12:17:18
Tagged date : UTC 2009-07-27 12:17:23
Audio #2
ID : 3
Format : AAC
Format/Info : Advanced Audio Codec
Format version : Version 4
Format profile : LC
Format settings, SBR : No
Codec ID : 40
Duration : 1h 40mn
Bit rate mode : Variable
Bit rate : 128 Kbps
Maximum bit rate : 209 Kbps
Channel(s) : 2 channels
Channel positions : L R
Sampling rate : 48.0 KHz
Stream size : 91.9 MiB (11%)
Language : English
Encoded date : UTC 2009-07-27 12:17:20
Tagged date : UTC 2009-07-27 12:17:23
Text #1
ID : 4
Format : Timed text
Muxing mode : sbtl
Codec ID : tx3g
Duration : 1h 34mn
Bit rate mode : Variable
Bit rate : 77 bps
Stream size : 53.0 KiB (0%)
Title : ration / 
Language : Russian
Encoded date : UTC 2009-07-28 13:02:37
Tagged date : UTC 2009-07-27 12:17:23
Text #2
ID : 5
Format : Timed text
Muxing mode : sbtl
Codec ID : tx3g
Duration : 1h 40mn
Bit rate mode : Variable
Bit rate : 1 bps
Stream size : 707 Bytes (0%)
Title : ration / 
Language : Russian
Encoded date : UTC 2009-07-28 13:02:54
Tagged date : UTC 2009-07-27 12:17:23
Text #3
ID : 6
Format : Timed text
Muxing mode : sbtl
Codec ID : tx3g
Duration : 1h 34mn
Bit rate mode : Variable
Bit rate : 53 bps
Stream size : 36.5 KiB (0%)
Title : ration / 
Language : English
Encoded date : UTC 2009-07-28 13:03:07
Tagged date : UTC 2009-07-27 12:17:23
Text #4
ID : 7
Format : Timed text
Codec ID : tx3g
Duration : 1h 46mn
Bit rate mode : Variable
Bit rate : 0
Stream size : 243 Bytes (0%)
Title : ration / 
Encoded date : UTC 2009-07-28 13:03:28
Tagged date : UTC 2009-07-27 12:17:23
Download / Скачать

Хотите скачать бесплатно? Зарегистрируйтесь на сайте (ссылка на регистрацию). Pirat.ca - самый быстрый торрент трекер в рунете!

Как скачивать  ·   Что такое торрент  ·   Рейтинг и ограничения



Последний раз редактировалось: Koralina (2012-06-12 01:28), всего редактировалось 5 раз(а)

Пост 04-Ноя-2011 05:29 (спустя 1 час 9 минут)

Топик был перенесен из форума Мультипликация в форум Зарубежные полнометражные мультфильмы

CaptRom
 

CAINE66

Лоцман

Пост 04-Ноя-2011 11:04 (спустя 6 часов)

[Q] 

Создали раздачу, и всё... трава не расти :-)
Кстати, Koralina пишется через С
[Профиль]  [ЛС] 

Koralina ®

80101

Пост 04-Ноя-2011 12:24 (спустя 1 час 19 минут)

[Q] 

CAINE66, послушайте, Уважаемый, я знаю как пишется это слово. Но написала так, как мне больше нравится......

_________________
[Профиль]  [ЛС] 
Показать сообщения:    
Ответить на тему

Текущее время: Сегодня 13:36

Часовой пояс: GMT + 4



Вы не можете начинать темы
Вы не можете отвечать на сообщения
Вы не можете редактировать свои сообщения
Вы не можете удалять свои сообщения
Вы не можете голосовать в опросах
Вы не можете прикреплять файлы к сообщениям
Вы не можете скачивать файлы

▼ Вниз