ML
     
  Уважаемый Гость!
Вы можете поддержать проект и зарегистрироваться у наших партнеров - онлайн-стратегия MyLands. При регистрации в игре Вы получите код, который сможете активировать после регистрации на pirat.ca и получить 1000 дублонов.

Ваш код:
c3360d664ceb84802c84b88ed062a5d134e2ba97
 
     

Звездные воины: Путь сквозь Вселенную \ AniMen: Triton Force (Ксю Керр / Xu Kerr) [2010 г., боевик, фантастика, приключения, DVDRip] (Dub)

Ответить на тему
 
Автор
Сообщение

Пост 04-Ноя-2011 09:00

[Q] 

Sirota

Легенда

Звездные воины: Путь сквозь Вселенную / AniMen: Triton Force
Год выпуска: 2010
Мировая премьера: 1 июня 2010
Российская премьера: 24 марта 2011, «Top Film Distribution», «Приор Дистрибьюшн»
Дата выхода DVD: 14 апреля 2011, «New Dream media», «Lizard Cinema Trade»
Производство: США, Китай
Жанр: боевик, фантастика, приключения
Продолжительность: 01:32:50
Перевод: профессиональный (полное дублирование)
Автор(ы) перевода: Александр Погребняк, Анатолий Пашнин, Владимир Терещук, Михаил Тишин
Режиссер: Ксю Керр / Xu Kerr
В ролях: Адам Бер,
Стив Брин,
Попс Браун,
Pierre Camarone,
Лиза Фоули,
Юрий Ловенталь,
Майкл МакКоннохи,
Стив Макгоун,
Джонатан Мейерс,
Adam Mondschein
Описание: Тысячи лет назад племя космических кочевников обнаружило в глубинах Вселенной мемо-кристаллы, хранящие знания могущественной древней цивилизации. С их помощью Блатарианцы овладели вековыми секретами ведения войны, изменили свой генетический код и стали непобедимыми. Их власть распространилась по Галактике со скоростью пожара. Беспощаднейший из правителей племени Лорд Комо встал во главе разрушительной империи.
Они поработили практически все известные цивилизации во Вселенной. Лишь немногие из рода человеческого выжили в этих войнах. Маленький отряд смельчаков, словно восставших из пепла, решил вновь сразиться с лордом и его непобедимыми убийцами. Но в решающей битве с более развитой и могущественной расой им не победить без информации с легендарных кристаллов, путь к которым пролегает через всю Вселенную и полон смертельных опасностей…
Доп. информация: сценарий Джош Чакона, Йуан Джи, Керр Ху,
продюсер Джастин Бальдони, Оуянг Чанглин, Керр Ху,
композитор Сэмм Чен
художник Шен Бинджи, Чен Ючунь, Ванг Фэн,
монтаж Лу Хуа, Керр Ху, Куин Пенг
Сэмпл, IMDB, КиноПоиск
Источник/Качество: DVDRip
Формат: AVI
Видео кодек: XviD
Аудио кодек: AC3
Видео: 720x400 (1.80:1), 25 fps, XviD MPEG-4 ~1655 kbps avg, 0.23 bit/pixel
Аудио: 8 kHz, AC3 Dolby Digital, 3/2 (L,C,R,l,r) + LFE ch, ~448.00 kbps avg
Субтитры: нет
General
Format : AVI
Format/Info : Audio Video Interleave
File size : 1.37 GiB
Duration : 1h 32mn
Overall bit rate : 2 109 Kbps
Writing application : VirtualDubMod 1.5.4.1 (build 2178/release)
Writing library : VirtualDubMod build 2178/release
Video #0
ID : 0
Format : MPEG-4 Visual
Format profile : [email protected]
Format settings, BVOP : Yes
Format settings, QPel : No
Format settings, GMC : No warppoints
Format settings, Matrix : Custom
Codec ID : XVID
Codec ID/Hint : XviD
Duration : 1h 32mn
Bit rate : 1 655 Kbps
Width : 720 pixels
Height : 400 pixels
Display aspect ratio : 16:9
Frame rate : 25.000 fps
Resolution : 24 bits
Colorimetry : 4:2:0
Scan type : Progressive
Bits/(Pixel*Frame) : 0.230
Stream size : 1.07 GiB (78%)
Writing library : XviD 58
Audio #1
ID : 1
Format : AC-3
Format/Info : Audio Coding 3
Codec ID : 2000
Duration : 1h 32mn
Bit rate mode : Constant
Bit rate : 448 Kbps
Channel(s) : 6 channels
Channel positions : Front: L C R, Surround: L R, LFE
Sampling rate : 48.0 KHz
Stream size : 295 MiB (21%)
Alignment : Split accross interleaves
Interleave, duration : 40 ms (1.01 video frame)
Interleave, preload duration : 500 ms







Download / Скачать

Хотите скачать бесплатно? Зарегистрируйтесь на сайте (ссылка на регистрацию). Pirat.ca - самый быстрый торрент трекер в рунете!

Как скачивать  ·   Что такое торрент  ·   Рейтинг и ограничения



Последний раз редактировалось: Sirota (2011-11-12 15:02), всего редактировалось 3 раз(а)

Пост 04-Ноя-2011 18:09 (спустя 9 часов)

Топик был перенесен из форума Зарубежные полнометражные мультфильмы в форум Новинки (BDRip/HDRip/DVDRip/DVDScr/ТС/SATRip/WP )

Sirota
 

XAPOH

Гроза морей

Пост 05-Ноя-2011 12:16 (спустя 1 день 3 часа)

[Q] 

Заценим. Спасибо!

_________________

<<<Dolus an virtus quis in hoste requirat?>>>
Intel Core i7 2600, 16Gb Ram, GTX 670, SSD.
PS4.
[Профиль]  [ЛС] 

byzzbyzz

Корсар

Пост 06-Ноя-2011 05:45 (спустя 17 часов)

[Q] 

Мульт безнадежно устарел лет на 10.... Подходит тока как жвачка на детском спутниковом....
[Профиль]  [ЛС] 

Mr.Freid

Лоцман

Пост 06-Ноя-2011 14:14 (спустя 8 часов)

[Q] 

а я так понял это к Звездным войнам все таки не относится? ну к Лукасовским
[Профиль]  [ЛС] 

Barex

Корсар

171

Пост 06-Ноя-2011 15:09 (спустя 55 минут)

[Q] 

а я так понял это к Звездным войнам все таки не относится? ну к Лукасовским
Сразу видно это однофамилец, но не родственник)))
[Профиль]  [ЛС] 

CHARLI2236

1098

Пост 25-Ноя-2011 19:41 (спустя 19 дней)

[Q] 

СПАСИБО

_________________
[Профиль]  [ЛС] 

Пост 08-Дек-2011 13:41 (спустя 12 дней)

Топик был перенесен из форума Новинки (HD|DVD|BD|TV|SAT|PDTV| - Rips) в форум Зарубежные полнометражные мультфильмы

oliks
 

Александр44

Корсар

Пост 18-Янв-2012 00:08 (спустя 1 месяц 22 дня)

[Q] 

))))
[Профиль]  [ЛС] 

Прораб

Легенда

Пост 31-Мар-2012 17:40 (спустя 2 месяца 13 дней)

[Q] 

Да ни чё, посмотреть разок можно.
спасибо!

_________________
Config comp: CPU-i7-2600K/RAM-32Gb/GF580GTX-1536Mb/RAID0(2 SSD-480GB)+RAID5(8 HDD-20Tb)/Win7 64bit.
[Профиль]  [ЛС] 

Nushka

Морской Волк

Пост 24-Июн-2012 11:26 (спустя 2 месяца 23 дня)

[Q] 

Один раз для просмотра вполне достаточно!
[Профиль]  [ЛС] 
Показать сообщения:    
Ответить на тему

Текущее время: Сегодня 10:09

Часовой пояс: GMT + 4



Вы не можете начинать темы
Вы не можете отвечать на сообщения
Вы не можете редактировать свои сообщения
Вы не можете удалять свои сообщения
Вы не можете голосовать в опросах
Вы не можете прикреплять файлы к сообщениям
Вы не можете скачивать файлы

▼ Вниз