ML
     
  Уважаемый Гость!
Вы можете поддержать проект и зарегистрироваться у наших партнеров - онлайн-стратегия MyLands. При регистрации в игре Вы получите код, который сможете активировать после регистрации на pirat.ca и получить 1000 дублонов.

Ваш код:
0ea1bf889af42fca5f67d0a391efb3400850ad7c
 
     

Зеленый Фонарь: Изумрудные рыцари / Green Lantern: Emerald Knights (Крис Беркли, Лоурен Монтгомери, Джей Олива / Chris Berkeley, Lauren Montgomery, Jay Oliva) [2011 г., Мультфильм, Фантастика, Фэнтези, Боевик, Приключения, BDRip] (Dub)

Ответить на тему
 
Автор
Сообщение

Пост 04-Ноя-2011 14:02

[Q] 

Ksandr

Флибустьер

Зеленый Фонарь: Изумрудные рыцари / Green Lantern: Emerald Knights
Год выпуска: 2011
Мировая премьера: 9 апреля 2011
Дата выхода DVD: 9 июня 2011
Производство: США
Жанр: Мультфильм, Фантастика, Фэнтези, Боевик, Приключения
Продолжительность: 01:20:14
Перевод: Профессиональный (полное дублирование)
Режиссер: Крис Беркли, Лоурен Монтгомери, Джей Олива / Chris Berkeley, Lauren Montgomery, Jay Oliva
В ролях: Натан Филлион, Джейсон Айзекс, Элизабет Мосс, Генри Роллинз, Арнольд Вослу, Тони Амендола, Стивен Блум, Грей ДеЛайл, Келли Ху, Майкл Джексон
Описание: Этот полнометражный анимационный фильм по Вселенной DC Comics открывает нам богатую мифологию мира Зеленого Фонаря в шести взаимосвязанных эпизодах. Ожидая сражения с Кроной, древним врагом Стражей Вселенной, Зеленые Фонари Земли: Хэл Джордан, Килавог, Синестро и другие бойцы Корпуса Зеленых Фонарей рассказывают новичку-рекруту Арисии о своих былых приключениях — от истории о Первом Фонаре до зловещих событий, которые привели к Самой Черной Ночи Корпуса!
Источник/Качество: BDRip
Формат: AVI
Видео кодек: XviD
Аудио кодек: AC3
Видео: 720x400, ~1017 kbps, 25,000 fps
Аудио: 2ch, 192 kbps, 48,0 КГц
Общее
Полное имя : Green Lantern Emerald Knights[pirat.ca].avi
Формат : AVI
Формат/Информация : Audio Video Interleave
Размер файла : 699 Мбайт
Продолжительность : 1 ч. 20 м.
Общий поток : 1218 Кбит/сек
Программа кодирования : VirtualDubMod 1.5.10.3 | www.virtualdub-fr.org || (build 2550/release)
Библиотека кодирования : VirtualDubMod build 2550/release
Видео
Идентификатор : 0
Формат : MPEG-4 Visual
Профиль формата : Advanced [email protected]
Параметр BVOP формата : 2
Параметр QPel формата : Нет
Параметр GMC формата : Без точки перехода
Параметр матрицы формата : Default (H.263)
Идентификатор кодека : XVID
Идентификатор кодека/Подсказка : XviD
Продолжительность : 1 ч. 20 м.
Битрейт : 1017 Кбит/сек
Ширина : 720 пикселей
Высота : 400 пикселей
Соотношение сторон : 16:9
Частота кадров : 25,000 кадров/сек
Цветовое пространство : YUV
Субдискретизация насыщенности : 4:2:0
Битовая глубина : 8 бит
Тип развёртки : Прогрессивная
Метод сжатия : С потерями
Бит/(Пиксели*Кадры) : 0.141
Размер потока : 584 Мбайт (83%)
Библиотека кодирования : XviD 62
Аудио
Идентификатор : 1
Формат : AC-3
Формат/Информация : Audio Coding 3
Профиль формата : Dolby Digital
Расширение режима : CM (complete main)
Идентификатор кодека : 2000
Продолжительность : 1 ч. 20 м.
Вид битрейта : Постоянный
Битрейт : 192 Кбит/сек
Каналы : 2 канала
Расположение каналов : Front: L R
Частота : 48,0 КГц
Битовая глубина : 16 бит
Метод сжатия : С потерями
Размер потока : 110 Мбайт (16%)
Выравнивание : Разделение по промежуткам
Продолжительность промежутка : 40 мс. (1,00 видеокадр)
Время предзагрузки промежутка : 500 мс.


Download / Скачать

Хотите скачать бесплатно? Зарегистрируйтесь на сайте (ссылка на регистрацию). Pirat.ca - самый быстрый торрент трекер в рунете!

Как скачивать  ·   Что такое торрент  ·   Рейтинг и ограничения



Последний раз редактировалось: Ksandr (2011-11-06 21:02), всего редактировалось 1 раз

ппавел

Шкипер

Пост 16-Ноя-2011 14:33 (спустя 12 дней)

[Q] 

спасибо! посмотрим киношку.
[Профиль]  [ЛС] 
Показать сообщения:    
Ответить на тему

Текущее время: Сегодня 00:34

Часовой пояс: GMT + 4



Вы не можете начинать темы
Вы не можете отвечать на сообщения
Вы не можете редактировать свои сообщения
Вы не можете удалять свои сообщения
Вы не можете голосовать в опросах
Вы не можете прикреплять файлы к сообщениям
Вы не можете скачивать файлы

▼ Вниз