ML
     
  Уважаемый Гость!
Вы можете поддержать проект и зарегистрироваться у наших партнеров - онлайн-стратегия MyLands. При регистрации в игре Вы получите код, который сможете активировать после регистрации на pirat.ca и получить 1000 дублонов.

Ваш код:
73640f24f8a0f579e128ea7346fd2db2b1009143
 
     

Сезон охоты 3 / Open Season 3 (Коуди Камерон / Cody Cameron) [2010 г., мультфильм, комедия, приключения, семейный, DVDRip] (Dub)

Ответить на тему
 
Автор
Сообщение

Пост 04-Ноя-2011 16:33

[Q] 

Юлия19

Морской Волк

Сезон охоты 3 / Open Season 3
Год выпуска: 2010
Мировая премьера: 21 октября 2010
Российская премьера: 21 октября 2010
Дата выхода DVD: 18 ноября 2010
Производство: США
Жанр: мультфильм, комедия, приключения, семейный
Продолжительность: 01:14:15
Перевод: Профессиональный (полное дублирование)
Режиссер: Коуди Камерон / Cody Cameron
В ролях: Кьяра Браво (Gesalita), Карли Скотт Коллинз (Gisela), Шон Маллен (Roger), Мэттью Дж. Мунн (Boog), Стив Ширрипа (Roberto), Дэна Снайдер (Alistair), Мелисса Штурм (Ursa), Мэттью В. Тейлор (Elliot)
Описание: Продолжение сумасшедших приключений медведя-гризли Буга и его верного друга, оленя Элиота. На этот раз Буг пускается на поиски личного счастья и попадает… в бродячий цирк, где знакомится с очаровательной русской медведицей.
IMDB, КиноПоиск
Формат: AVI
Видео кодек: XviD
Аудио кодек: AC3
Видео: 2228 Кб/сек, 720*384 (1,875) 25000 fps MPEG-4 Visual (XviD)
Аудио: 384 Kbps 48.0 KHz 16 bits 6 channels AC3
Общее
Полное имя : F:\Коллекция фильмов\Мультфильмы\[pirat.ca]_Sezon.ohoty.3.2010.D.DVDRip.ELEKTRI4KA.avi
Формат : AVI
Формат/Информация : Audio Video Interleave
Размер файла : 1,36 Гбайт
Продолжительность : 1 ч. 14 м.
Общий поток : 2621 Кбит/сек
Программа кодирования : VirtualDubMod 1.5.10.2 (build 2540/release)
Библиотека кодирования : VirtualDubMod build 2540/release
Видео
Идентификатор : 0
Формат : MPEG-4 Visual
Профиль формата : Advanced [email protected]
Параметр BVOP формата : 3
Параметр QPel формата : Нет
Параметр GMC формата : Без точки перехода
Параметр матрицы формата : Выборочная
Идентификатор кодека : XVID
Идентификатор кодека/Подсказка : XviD
Продолжительность : 1 ч. 14 м.
Битрейт : 2228 Кбит/сек
Ширина : 720 пикселей
Высота : 384 пикселя
Соотношение сторон : 1,875
Частота кадров : 25,000 кадров/сек
Цветовое пространство : YUV
Субдискретизация насыщенности : 4:2:0
Битовая глубина : 8 бит
Тип развёртки : Прогрессивная
Метод сжатия : С потерями
Бит/(Пиксели*Кадры) : 0.322
Размер потока : 1,16 Гбайт (85%)
Библиотека кодирования : XviD 1.2.1 (UTC 2008-12-04)
Аудио
Идентификатор : 1
Формат : AC-3
Формат/Информация : Audio Coding 3
Расширение режима : CM (complete main)
Идентификатор кодека : 2000
Продолжительность : 1 ч. 14 м.
Вид битрейта : Постоянный
Битрейт : 384 Кбит/сек
Каналы : 6 каналов
Расположение каналов : Front: L C R, Side: L R, LFE
Частота : 48,0 КГц
Битовая глубина : 16 бит
Метод сжатия : С потерями
Размер потока : 205 Мбайт (15%)
Выравнивание : Соединение по промежуткам
Продолжительность промежутка : 40 мс. (1,00 видеокадр)
Время предзагрузки промежутка : 512 мс.


Download / Скачать

Хотите скачать бесплатно? Зарегистрируйтесь на сайте (ссылка на регистрацию). Pirat.ca - самый быстрый торрент трекер в рунете!

Как скачивать  ·   Что такое торрент  ·   Рейтинг и ограничения



Последний раз редактировалось: Юлия19 (2011-11-08 21:30), всего редактировалось 1 раз

Пост 04-Ноя-2011 16:44 (спустя 10 минут)

Топик был перенесен из форума Художественные фильмы (Зарубежное кино) в форум Зарубежные полнометражные мультфильмы

Skinwalker
 

abcxyz

Штурман

Пост 07-Ноя-2011 23:39 (спустя 3 дня)

[Q] 

Перезалейте торрент, он тоже оказался удаленным.
[Профиль]  [ЛС] 

Юлия19 ®

Морской Волк

375

Пост 08-Ноя-2011 21:35 (спустя 21 час)

[Q] 

Перезалила
[Профиль]  [ЛС] 

Voland57

Корсар

Пост 11-Июн-2012 15:32 (спустя 7 месяцев 2 дня)

[Q] 

[Профиль]  [ЛС] 

pp2141

Гроза морей

Пост 07-Мар-2015 20:56 (спустя 2 года 8 месяцев)

[Q] 

Спасибо Супер!
[Профиль]  [ЛС] 
Показать сообщения:    
Ответить на тему

Текущее время: Сегодня 22:37

Часовой пояс: GMT + 4



Вы не можете начинать темы
Вы не можете отвечать на сообщения
Вы не можете редактировать свои сообщения
Вы не можете удалять свои сообщения
Вы не можете голосовать в опросах
Вы не можете прикреплять файлы к сообщениям
Вы не можете скачивать файлы

▼ Вниз