ML
     
  Уважаемый Гость!
Вы можете поддержать проект и зарегистрироваться у наших партнеров - онлайн-стратегия MyLands. При регистрации в игре Вы получите код, который сможете активировать после регистрации на pirat.ca и получить 1000 дублонов.

Ваш код:
73640f24f8a0f579e128ea7346fd2db2b1009143
 
     

Рапунцель: Запутанная история / Tangled (Haтaн Гpeнo, Бaйpoн Xoвaрд / Nаthаn Grеnо, Bуron Ноward) [2010 г., мультфильм, мюзикл, фэнтези, мелодрама, комедия, семейный, HDRip] (Dub)

Ответить на тему
 
Автор
Сообщение

Пост 04-Ноя-2011 17:26

[Q] 

zyyx

--Рапунцель: Запутанная история / Tangled
«Приключения предпочитают блондинок»
-- Год выпуска: 2010
Мировая премьера: 24 ноября 2010
Российская премьера: 25 ноября 2010, «WDSSPR»
Дата выхода DVD: 22 марта 2011, «Уолт Дисней Компани СНГ»
Дата выхода Blu-Ray: 29 марта 2011, «Уолт Дисней Компани СНГ»
Производство: США
Жанр: мультфильм, мюзикл, фэнтези, мелодрама, комедия, семейный
Продолжительность: 01:40:57
Перевод: Профессиональный (полное дублирование) [Лицензия]
Режиссер: Haтaн Гpeнo, Бaйpoн Xoвaрд / Nаthаn Grеnо, Bуron Ноward
В ролях: Мэнди Мур, Захари Левай, Донна Мерфи, Рон Перлман, М. К. Гейни, Джефри Тэмбор, Брэд Гэррет, Пол Ф. Томпкинс, Ричард Кил, Делани Роуз Стейн
Описание: Обаятельный разбойник Флинн путешествует по жизни с легкостью, лишь потому, что он красив, болтлив и удачлив. И казалось, фортуна всегда на его стороне, пока однажды он не выбирает высокую башню в густой чаще леса в качестве «спокойного» убежища. Флинн оказывается связанным по рукам и ногам юной красавицей по имени Рапунцель.
Если вы думаете, что самое интересное в ней — это 21 метр волшебных золотистых волос, то вы заблуждаетесь! Запертая в башне и отчаянно ищущая приключений, Рапунцель решает использовать Флинна в качестве билета в большой мир. Сначала комичное похищение, затем невинный шантаж — и вот наши герои на воле. Вместе с главными героями в авантюрное путешествие отправятся бравый конь-ищейка Максимус, ручной хамелеон и шайка сумасбродных разбойников.-Сэмпл | IMDB | КиноПоиск-Источник/Качество: HDRip
Формат: AVI
Видео кодек: XviD
Аудио кодек: AC3
Видео: 720x400 (1.80:1), 23.976 fps, XviD MPEG-4, 1546 kbps avg, 0.22 bit/pixel
Аудио: 48 kHz, AC3 Dolby Digital, 3/2 (L,C,R,l,r) + LFE ch, 384 kbps
Общее
Полное имя : D:\pirat.ca\Rapuntzel.Zaputannaja.istorija.2010.D.HDRip.avi
Формат : AVI
Формат/Информация : Audio Video Interleave
Размер файла : 1,37 Гбайт
Продолжительность : 1 ч. 40 м.
Общий поток : 1938 Кбит/сек
Программа кодирования : VirtualDubMod 1.5.4.1 (build 2178/release)
Библиотека кодирования : VirtualDubMod build 2178/release
Видео
Идентификатор : 0
Формат : MPEG-4 Visual
Профиль формата : Advanced [email protected]
Параметр BVOP формата : 2
Параметр QPel формата : Нет
Параметр GMC формата : Без точки перехода
Параметр матрицы формата : Выборочная
Идентификатор кодека : XVID
Идентификатор кодека/Подсказка : XviD
Продолжительность : 1 ч. 40 м.
Битрейт : 1547 Кбит/сек
Ширина : 720 пикселей
Высота : 400 пикселей
Соотношение сторон : 16:9
Частота кадров : 23,976 кадра/сек
Цветовое пространство : YUV
Субдискретизация насыщенности : 4:2:0
Битовая глубина : 8 бит
Тип развёртки : Прогрессивная
Метод сжатия : С потерями
Бит/(Пиксели*Кадры) : 0.224
Размер потока : 1,09 Гбайт (80%)
Библиотека кодирования : XviD 58
Аудио
Идентификатор : 1
Формат : AC-3
Формат/Информация : Audio Coding 3
Расширение режима : CM (complete main)
Идентификатор кодека : 2000
Продолжительность : 1 ч. 40 м.
Вид битрейта : Постоянный
Битрейт : 384 Кбит/сек
Каналы : 6 каналов
Расположение каналов : Front: L C R, Side: L R, LFE
Частота : 48,0 КГц
Битовая глубина : 16 бит
Метод сжатия : С потерями
Задержка видео : 1 мс.
Размер потока : 276 Мбайт (20%)
Выравнивание : Разделение по промежуткам
Продолжительность промежутка : 42 мс. (1,01 видеокадр)
Время предзагрузки промежутка : 500 мс.


Download / Скачать

Хотите скачать бесплатно? Зарегистрируйтесь на сайте (ссылка на регистрацию). Pirat.ca - самый быстрый торрент трекер в рунете!

Как скачивать  ·   Что такое торрент  ·   Рейтинг и ограничения



Последний раз редактировалось: zyyx (2011-11-06 19:34), всего редактировалось 1 раз

Пост 04-Ноя-2011 18:05 (спустя 38 минут)

Топик был перенесен из форума Мультипликация в форум Зарубежные полнометражные мультфильмы

CaptRom
 

ппавел

Шкипер

Пост 01-Янв-2012 19:25 (спустя 1 месяц 27 дней)

[Q] 

спасибо
[Профиль]  [ЛС] 

nastyamihailowa

Штурман

Пост 20-Янв-2012 17:43 (спустя 18 дней)

[Q] 

офигенный мультфильм! обязательно посмотрите
[Профиль]  [ЛС] 

KIRST

Корсар

Пост 26-Янв-2012 21:11 (спустя 6 дней)

[Q] 

Спасибо.
[Профиль]  [ЛС] 

tayborey

Морской Волк

Пост 29-Янв-2012 13:07 (спустя 2 дня 15 часов)

[Q] 

Автору РЕСПЕКТ!!! ad
[Профиль]  [ЛС] 

botili

Морской Волк

Пост 07-Фев-2012 07:56 (спустя 8 дней)

[Q] 

Посмотрел... не понял, но пересматривать не буду. au

_________________
А судьи кто?
[Профиль]  [ЛС] 

ku6opr

Морской Волк

184

Пост 08-Мар-2012 09:52 (спустя 1 месяц 1 день)

[Q] 

botili, ты наверно один его не понял или плохо смотрел... у меня дочь его уже затаскала... скоро винт сотрётся в этом месте.

_________________
[Профиль]  [ЛС] 

Rion

Корсар

122

Пост 04-Июн-2012 20:56 (спустя 2 месяца 27 дней)

[Q] 

Спасибо, посмотрим!
[Профиль]  [ЛС] 

iuotkach

Морской Волк

Пост 05-Июн-2012 08:21 (спустя 11 часов)

[Q] 

[Профиль]  [ЛС] 

SBalykov

Корсар

1452

Пост 17-Июн-2012 06:48 (спустя 11 дней)

[Q] 

Красивый мультик

_________________
Never put off till tomorrow what can be done after tomorrow...
S.Balykov
[Профиль]  [ЛС] 

valet12306

Лоцман

Пост 24-Июн-2012 15:07 (спустя 7 дней)

[Q] 

Спасибо за мульт!!!
[Профиль]  [ЛС] 

maksimum73

Корсар

Пост 14-Фев-2013 17:49 (спустя 7 месяцев 20 дней)

[Q] 

[Профиль]  [ЛС] 

semdic

Морской Волк

Пост 19-Фев-2013 15:12 (спустя 4 дня)

[Q] 

Спасибо.
[Профиль]  [ЛС] 

des

Морской Волк

Пост 17-Май-2013 13:45 (спустя 2 месяца 25 дней)

[Q] 

[Профиль]  [ЛС] 

black kat

Лоцман

Пост 08-Июл-2013 13:12 (спустя 1 месяц 21 день)

[Q] 

СПАСИБО!!!!!!!!!!!!!!!!!!!!
[Профиль]  [ЛС] 

neponimai

Морской Волк

Пост 10-Окт-2014 21:59 (спустя 1 год 3 месяца)

[Q] 

Пиратка рулит! Лови бочку офигенный мульт)
[Профиль]  [ЛС] 

Анна 341662

Корсар

11

Пост 24-Янв-2015 22:18 (спустя 3 месяца 14 дней)

[Q] 

Спасибо, обожаю этот мультик!!!
[Профиль]  [ЛС] 
Показать сообщения:    
Ответить на тему

Текущее время: Сегодня 22:30

Часовой пояс: GMT + 4



Вы не можете начинать темы
Вы не можете отвечать на сообщения
Вы не можете редактировать свои сообщения
Вы не можете удалять свои сообщения
Вы не можете голосовать в опросах
Вы не можете прикреплять файлы к сообщениям
Вы не можете скачивать файлы

▼ Вниз