ML
     
  Уважаемый Гость!
Вы можете поддержать проект и зарегистрироваться у наших партнеров - онлайн-стратегия MyLands. При регистрации в игре Вы получите код, который сможете активировать после регистрации на pirat.ca и получить 1000 дублонов.

Ваш код:
e93cd9e43017f251127f220889864c05934e61c6
 
     

Аладдин: Возвращение Джафара / The Return of Jafar (Тоби Шелтон / Toby Shelton, Тэд Стоунз / Tad Stones, Элан Зэслов / Alan Zaslove) [1994 г., мультфильм, мюзикл, семейный, DVDRip] (Dub)

Ответить на тему
 
Автор
Сообщение

Пост 05-Ноя-2011 02:42

[Q] 

Delf_HL

Лоцман

Аладдин: Возвращение Джафара / The Return of Jafar
Год выпуска: 1994
Производство: США
Жанр: мультфильм, мюзикл, семейный
Продолжительность: 01:06:15
Перевод: Профессиональный (полное дублирование)
Режиссер: Тоби Шелтон / Toby Shelton, Тэд Стоунз / Tad Stones, Элан Зэслов / Alan Zaslove
В ролях: Джонатан Фриман /Jonathan Freeman/, Гилберт Готтфрид /Gilbert Gottfried/, Джейсон Александер /Jason Alexander/, Скотт Вейнгер /Scott Weinger/, Линда Ларкинн /Linda Larkinn/, Джим Каммингс /Jim Cummings/
Описание: Казалось бы, что черному чародею и новоявленному джинну Джафару суждено навеки остаться пленником волшебной лампы, - но ему удается освободиться! И на уме у коварного злодея лишь одно: он жаждет отомстить Аладдину! А тем временем, в Аграбе жизнь идет своим чередом. Неунывающий проказник Джинн вернулся из кругосветного путешествия, и рассказывает друзьям невероятные истории своих приключениях. Но счастье продлится недолго. Нашим героям вновь придется встретиться с Джафаром лицом к лицу, и им пригодится вся их магия и отвага. Немало препятствий встанет на пути наших старых знакомых Аладдина, принцессы Жасмин, Абу, Коврика и конечно же Джинна. Тут и сражения с ворами на летающих лошадях, и объятые пламенем клокочущие расщелины с лавой. Но отступить нельзя - на кону судьба всего королевства!
Источник/Качество: DVDRip
Формат: AVI
Видео кодек: XviD
Аудио кодек: AC3
Видео: 672x496 (1.35:1), 25 fps, ~2748 kbps avg, 0.33 bit/pixel
Аудио: 48 kHz, , 2 ch, ~192.00 kbps avg
Полное имя : I:\Мультфильмы\Return of Jafar.avi
Формат : AVI
Формат/Информация : Audio Video Interleave
Размер файла : 1,37 Гбайт
Продолжительность : 1 ч. 6 м.
Общий поток : 2951 Кбит/сек
Программа кодирования : FairUse Wizard - http://fairusewizard.com
Библиотека кодирования : The best and REALLY easy backup tool
Видео
Идентификатор : 0
Формат : MPEG-4 Visual
Профиль формата : Advanced [email protected]
Параметр BVOP формата : 1
Параметр QPel формата : Нет
Параметр GMC формата : Без точки перехода
Параметр матрицы формата : Default (H.263)
Режим смешивания : Сжатый битовый поток
Идентификатор кодека : XVID
Идентификатор кодека/Подсказка : XviD
Продолжительность : 1 ч. 6 м.
Битрейт : 2749 Кбит/сек
Ширина : 672 пикселя
Высота : 496 пикселей
Соотношение сторон : 4:3
Частота кадров : 25,000 кадров/сек
Цветовое пространство : YUV
Субдискретизация насыщенности : 4:2:0
Битовая глубина : 8 бит
Тип развёртки : Прогрессивная
Метод сжатия : С потерями
Бит/(Пиксели*Кадры) : 0.330
Размер потока : 1,27 Гбайт (93%)
Библиотека кодирования : XviD 1.1.0 (UTC 2005-11-22)
Аудио
Идентификатор : 1
Формат : AC-3
Формат/Информация : Audio Coding 3
Профиль формата : Dolby Digital
Расширение режима : CM (complete main)
Идентификатор кодека : 2000
Продолжительность : 1 ч. 6 м.
Вид битрейта : Постоянный
Битрейт : 192 Кбит/сек
Каналы : 2 канала
Расположение каналов : Front: L R
Частота : 48,0 КГц
Битовая глубина : 16 бит
Метод сжатия : С потерями
Размер потока : 91,0 Мбайт (7%)
Выравнивание : Разделение по промежуткам
Продолжительность промежутка : 40 мс. (1,00 видеокадр)
Время предзагрузки промежутка : 500 мс.
http://multi-up.com/593650


Download / Скачать

Хотите скачать бесплатно? Зарегистрируйтесь на сайте (ссылка на регистрацию). Pirat.ca - самый быстрый торрент трекер в рунете!

Как скачивать  ·   Что такое торрент  ·   Рейтинг и ограничения



Последний раз редактировалось: Delf_HL (2011-11-11 20:59), всего редактировалось 5 раз(а)

Пост 12-Ноя-2011 11:34 (спустя 7 дней)

Топик был перенесен из форума Мультипликация в форум Зарубежные полнометражные мультфильмы

zyyx
 

OlegSh

Морской Волк

Пост 26-Дек-2011 15:09 (спустя 1 месяц 21 день)

[Q] 

хороший мульт
[Профиль]  [ЛС] 

balex

Морской Волк

Пост 28-Апр-2012 18:19 (спустя 4 месяца 2 дня)

[Q] 

Мульт супер!!)))
[Профиль]  [ЛС] 
Показать сообщения:    
Ответить на тему

Текущее время: Сегодня 04:24

Часовой пояс: GMT + 4



Вы не можете начинать темы
Вы не можете отвечать на сообщения
Вы не можете редактировать свои сообщения
Вы не можете удалять свои сообщения
Вы не можете голосовать в опросах
Вы не можете прикреплять файлы к сообщениям
Вы не можете скачивать файлы

▼ Вниз