ML
     
  Уважаемый Гость!
Вы можете поддержать проект и зарегистрироваться у наших партнеров - онлайн-стратегия MyLands. При регистрации в игре Вы получите код, который сможете активировать после регистрации на pirat.ca и получить 1000 дублонов.

Ваш код:
c89b4b6523eaac3173e9a9c062ac1a19db575961
 
     

Зеленый Фонарь: Первый полет / Green Lantern: First Flight (Лоурен Монтгомери / Lauren Montgomery) [2009 г., Мультфильм, Фантастика, Фэнтези, Боевик, Приключения, BDRip] (MVO)

Ответить на тему
 
Автор
Сообщение

Пост 05-Ноя-2011 05:56

[Q] 

Ksandr

Флибустьер

Зеленый Фонарь: Первый полет /Green Lantern: First Flight
Год выпуска: 2009
Мировая премьера: 28 июля 2009
Производство: США
Жанр: Мультфильм, Фантастика, Фэнтези, Боевик, Приключения
Продолжительность: 01:17:35
Перевод: Любительский (многоголосый закадровый)
Режиссер: Лоурен Монтгомери / Lauren Montgomery
В ролях: Кристофер Мелони, Виктор Гарбер, Тришиа Хелфер, Майкл Мэдсен, Джон Ларрокетт, Кертвуд Смит, Ларри Дрэйк, Уильям Шэллерт, Малачи Трон, Оливия д’Або
Описание: Летчик-испытатель Хэл Джордан находит себе работу в качестве нового члена межгалактической полиции, Зеленый Фонарь — одна из самых элитных подразделений героев. Эти герои патрулируют вселенную, чтобы охранять мир и вершить правосудие над злодеями. Неуверенные в новичке, «Опекуны» назначают Хэлу задания для его обучения. Однако сами «Опекуны» не подозревают, что Синестро планирует свергнуть их и создать новую организацию, которой он будет управлять. Это — сражение силы и могущества, должно доказать, что Хэл Джордан способен свергнуть мятежника и спасти Зеленый цвет «Корпуса Фонаря».
Источник/Качество: BDRip
Формат: AVI
Видео кодек: XviD
Аудио кодек: AC3
Видео: 688x384, ~1144 kbps, 23,976 fps
Аудио: 2ch, 192 kbps, 48,0 КГц
Общее
Полное имя : Green Lantern First Flight[pirat.ca].avi
Формат : AVI
Формат/Информация : Audio Video Interleave
Размер файла : 747 Мбайт
Продолжительность : 1 ч. 17 м.
Общий поток : 1345 Кбит/сек
Программа кодирования : VirtualDubMod 1.5.10.2 (build 2540/release)
Библиотека кодирования : VirtualDubMod build 2540/release
Видео
Идентификатор : 0
Формат : MPEG-4 Visual
Профиль формата : Advanced [email protected]
Параметр BVOP формата : 1
Параметр QPel формата : Нет
Параметр GMC формата : Без точки перехода
Параметр матрицы формата : Default (MPEG)
Идентификатор кодека : XVID
Идентификатор кодека/Подсказка : XviD
Продолжительность : 1 ч. 17 м.
Битрейт : 1144 Кбит/сек
Ширина : 688 пикселей
Высота : 384 пикселя
Соотношение сторон : 16:9
Частота кадров : 23,976 кадра/сек
Цветовое пространство : YUV
Субдискретизация насыщенности : 4:2:0
Битовая глубина : 8 бит
Тип развёртки : Прогрессивная
Метод сжатия : С потерями
Бит/(Пиксели*Кадры) : 0.181
Размер потока : 635 Мбайт (85%)
Библиотека кодирования : XviD 1.2.1 (UTC 2008-12-04)
Аудио
Идентификатор : 1
Формат : AC-3
Формат/Информация : Audio Coding 3
Расширение режима : CM (complete main)
Идентификатор кодека : 2000
Продолжительность : 1 ч. 17 м.
Вид битрейта : Постоянный
Битрейт : 192 Кбит/сек
Каналы : 2 канала
Расположение каналов : Front: L R
Частота : 48,0 КГц
Битовая глубина : 16 бит
Метод сжатия : С потерями
Размер потока : 107 Мбайт (14%)
Выравнивание : Разделение по промежуткам
Продолжительность промежутка : 42 мс. (1,00 видеокадр)
Время предзагрузки промежутка : 500 мс.


Download / Скачать

Хотите скачать бесплатно? Зарегистрируйтесь на сайте (ссылка на регистрацию). Pirat.ca - самый быстрый торрент трекер в рунете!

Как скачивать  ·   Что такое торрент  ·   Рейтинг и ограничения



Последний раз редактировалось: Ksandr (2011-11-06 20:48), всего редактировалось 1 раз

Пост 05-Ноя-2011 06:20 (спустя 24 минуты)

Топик был перенесен из форума Мультипликация в форум Зарубежные полнометражные мультфильмы

zyyx
 
Показать сообщения:    
Ответить на тему

Текущее время: Сегодня 22:33

Часовой пояс: GMT + 4



Вы не можете начинать темы
Вы не можете отвечать на сообщения
Вы не можете редактировать свои сообщения
Вы не можете удалять свои сообщения
Вы не можете голосовать в опросах
Вы не можете прикреплять файлы к сообщениям
Вы не можете скачивать файлы

▼ Вниз