ML
     
  Уважаемый Гость!
Вы можете поддержать проект и зарегистрироваться у наших партнеров - онлайн-стратегия MyLands. При регистрации в игре Вы получите код, который сможете активировать после регистрации на pirat.ca и получить 1000 дублонов.

Ваш код:
0af2e2107bc9b5dd5ac2c09f9fc25e1a77c43887
 
     

Планета Халка / Planet Hulk (Сэм Лью / Sam Liu) [2010 г., Мультфильм, Фантастика, Боевик, HDRip] (MVO)

Ответить на тему
 
Автор
Сообщение

Пост 05-Ноя-2011 06:48

[Q] 

Ksandr

Флибустьер

Планета Халка / Planet Hulk
Год выпуска: 2010
Мировая премьера: 2 февраля 2010
Дата выхода DVD: 21 июня 2011
Производство: США
Жанр: Мультфильм, Фантастика, Боевик
Продолжительность: 01:21:07
Перевод: Любительский (многоголосый закадровый)
Режиссер: Сэм Лью / Sam Liu
В ролях: Рик Д. Вассерман, Лиза Энн Бели, Марк Хилдрет, Лайам О’Брайэн, Кевин Майкл Ричардсон, Сэмюэл Винсент, Advah Soudack, Майкл Копса, Пол Добсон, Марк Уорден
Описание: Сохранит ли он свой мир или разрушить его? Когда Халк становится слишком опасным для Земли, его сажают в челноки и запускают в космос. К сожалению, сбой в челноке приводит к тому, что Халк приземляется на планету Sakaar, где он был продан в рабство в качестве гладиатора.
Источник/Качество: HDRip
Формат: AVI
Видео кодек: XviD
Аудио кодек: MP3
Видео: 704x400, ~1159 kbps, 23,976 fps
Аудио: 2ch, 128 kbps, 44,1 КГц
Общее
Полное имя : Planet Hulk[pirat.ca].avi
Формат : AVI
Формат/Информация : Audio Video Interleave
Размер файла : 752 Мбайт
Продолжительность : 1 ч. 21 м.
Общий поток : 1296 Кбит/сек
Программа кодирования : VirtualDubMod 1.5.10.2 (build 2540/release)
Библиотека кодирования : VirtualDubMod build 2540/release
Видео
Идентификатор : 0
Формат : MPEG-4 Visual
Профиль формата : Advanced [email protected]
Параметр BVOP формата : 1
Параметр QPel формата : Нет
Параметр GMC формата : Без точки перехода
Параметр матрицы формата : Default (MPEG)
Идентификатор кодека : XVID
Идентификатор кодека/Подсказка : XviD
Продолжительность : 1 ч. 21 м.
Битрейт : 1159 Кбит/сек
Ширина : 704 пикселя
Высота : 400 пикселей
Соотношение сторон : 16:9
Частота кадров : 23,976 кадра/сек
Цветовое пространство : YUV
Субдискретизация насыщенности : 4:2:0
Битовая глубина : 8 бит
Тип развёртки : Прогрессивная
Метод сжатия : С потерями
Бит/(Пиксели*Кадры) : 0.172
Размер потока : 672 Мбайт (89%)
Библиотека кодирования : XviD 1.2.0.dev47 (UTC 2006-11-01)
Аудио
Идентификатор : 1
Формат : MPEG Audio
Версия формата : Version 1
Профиль формата : Layer 3
Идентификатор кодека : 55
Идентификатор кодека/Подсказка : MP3
Продолжительность : 1 ч. 21 м.
Вид битрейта : Постоянный
Битрейт : 128 Кбит/сек
Каналы : 2 канала
Частота : 44,1 КГц
Метод сжатия : С потерями
Размер потока : 74,3 Мбайт (10%)
Выравнивание : Разделение по промежуткам
Продолжительность промежутка : 42 мс. (1,00 видеокадр)
Время предзагрузки промежутка : 500 мс.
Библиотека кодирования : LAME3.97
Настройки программы : -m s -V 4 -q 2 -lowpass 17 -b 128


Download / Скачать

Хотите скачать бесплатно? Зарегистрируйтесь на сайте (ссылка на регистрацию). Pirat.ca - самый быстрый торрент трекер в рунете!

Как скачивать  ·   Что такое торрент  ·   Рейтинг и ограничения



Последний раз редактировалось: Ksandr (2011-11-06 20:57), всего редактировалось 1 раз

Пост 05-Ноя-2011 07:13 (спустя 24 минуты)

Топик был перенесен из форума Мультипликация в форум Зарубежные полнометражные мультфильмы

CaptRom
 

manu

Пост 14-Ноя-2013 19:14 (спустя 2 года)

[Q] 

Постою на раздаче. RTFM! Пиратка рулит!
[Профиль]  [ЛС] 

Бендор

Морской Волк

Пост 12-Мар-2014 10:31 (спустя 3 месяца 27 дней)

[Q] 

смотрел 3 часа ночи не мог оторваться Спасибо!!!
[Профиль]  [ЛС] 

kelto

Шкипер

Пост 22-Авг-2015 20:08 (спустя 1 год 5 месяцев)

[Q] 

Было бы не плохо скачать Эй, вернитесь на раздачу...
[Профиль]  [ЛС] 

platon18

Гроза морей

Пост 14-Окт-2015 11:30 (спустя 1 месяц 22 дня)

[Q] 

разрисовка не очень
[Профиль]  [ЛС] 

Han.M

Флибустьер

Пост 17-Окт-2015 11:33 (спустя 3 дня)

[Q] 

Гладиатор Халк!
[Профиль]  [ЛС] 

ник ример

Морской Волк

Пост 19-Окт-2015 09:23 (спустя 1 день 21 час)

[Q] 

класный мульт
[Профиль]  [ЛС] 
Показать сообщения:    
Ответить на тему

Текущее время: Сегодня 00:05

Часовой пояс: GMT + 4



Вы не можете начинать темы
Вы не можете отвечать на сообщения
Вы не можете редактировать свои сообщения
Вы не можете удалять свои сообщения
Вы не можете голосовать в опросах
Вы не можете прикреплять файлы к сообщениям
Вы не можете скачивать файлы

▼ Вниз