ML
     
  Уважаемый Гость!
Вы можете поддержать проект и зарегистрироваться у наших партнеров - онлайн-стратегия MyLands. При регистрации в игре Вы получите код, который сможете активировать после регистрации на pirat.ca и получить 1000 дублонов.

Ваш код:
ea554e7ed3eacceeae87a8b30a9de3f086c18a84
 
     

В поисках Жу \ Quest for Zhu (Боб Дусетте / Bob Doucette) [2011 г., приключения, детский, семейный, HDRip] (Dub)

Ответить на тему
 
Автор
Сообщение

Пост 05-Ноя-2011 09:47

[Q] 

Sirota

Легенда

В поисках Жу \ Quest for Zhu Год выпуска: 2011
Мировая премьера: 27 сентября 2011
Дата выхода DVD: 10 ноября 2011, «Двадцатый Век Фокс СНГ»
Производство: США
Жанр: приключения, детский, семейный
Продолжительность: 01:12:57
Перевод: профессиональный (полное дублирование)
Оригинальный аудиопоток: Английский
Режиссер: Боб Дусетте / Bob Doucette
В ролях: Много разноцветных хомячков
Описание: Трогательный рассказ о четырех молодых хомячках, которые отправляются на поиски, чтобы найти Дворец Жу, где, они полагают, все их мечты сбудутся.
Сэмпл, IMDB, КиноПоиск
Источник/Качество: HDRip
Формат: AVI
Видео кодек: XviD
Аудио кодек: AC3
Видео: 720x400 (1.80:1), 23.976 fps, XviD build 64 ~2084 kbps avg, 0.30 bit/pixel
Аудио: Rus 48 kHz, AC3 Dolby Digital, 3/2 (L,C,R,l,r) + LFE ch, ~384.00 kbps avg
Аудио #2: Eng 48 kHz, AC3 Dolby Digital, 3/2 (L,C,R,l,r) + LFE ch, ~384.00 kbps avg
Субтитры: нет
General
Format : AVI
Format/Info : Audio Video Interleave
File size : 1.46 GiB
Duration : 1h 12mn
Overall bit rate : 2 867 Kbps
Writing application : VirtualDubMod 1.5.10.3 (build 2550/release)
Writing library : VirtualDubMod build 2550/release
Video #0
ID : 0
Format : MPEG-4 Visual
Format profile : [email protected]
Format settings, BVOP : Yes
Format settings, QPel : No
Format settings, GMC : No warppoints
Format settings, Matrix : Custom
Codec ID : XVID
Codec ID/Hint : XviD
Duration : 1h 12mn
Bit rate : 2 086 Kbps
Width : 720 pixels
Height : 400 pixels
Display aspect ratio : 16:9
Frame rate : 23.976 fps
Resolution : 24 bits
Colorimetry : 4:2:0
Scan type : Progressive
Bits/(Pixel*Frame) : 0.302
Stream size : 1.06 GiB (73%)
Writing library : XviD 64
Audio #1
ID : 1
Format : AC-3
Format/Info : Audio Coding 3
Codec ID : 2000
Duration : 1h 12mn
Bit rate mode : Constant
Bit rate : 384 Kbps
Channel(s) : 6 channels
Channel positions : Front: L C R, Surround: L R, LFE
Sampling rate : 48.0 KHz
Stream size : 200 MiB (13%)
Alignment : Split accross interleaves
Interleave, duration : 42 ms (1.00 video frame)
Interleave, preload duration : 500 ms
Audio #2
ID : 2
Format : AC-3
Format/Info : Audio Coding 3
Codec ID : 2000
Duration : 1h 12mn
Bit rate mode : Constant
Bit rate : 384 Kbps
Channel(s) : 6 channels
Channel positions : Front: L C R, Surround: L R, LFE
Sampling rate : 48.0 KHz
Stream size : 200 MiB (13%)
Alignment : Split accross interleaves
Interleave, duration : 42 ms (1.00 video frame)
Interleave, preload duration : 500 ms







Download / Скачать

Хотите скачать бесплатно? Зарегистрируйтесь на сайте (ссылка на регистрацию). Pirat.ca - самый быстрый торрент трекер в рунете!

Как скачивать  ·   Что такое торрент  ·   Рейтинг и ограничения



Последний раз редактировалось: Sirota (2011-11-12 15:01), всего редактировалось 2 раз(а)

Пост 05-Ноя-2011 10:56 (спустя 1 час 9 минут)

Топик был перенесен из форума Мультипликация в форум Новинки (рипы)

zyyx
 

ппавел

Шкипер

Пост 27-Ноя-2011 16:50 (спустя 22 дня)

[Q] 

спасибо!
[Профиль]  [ЛС] 

Пост 08-Дек-2011 14:03 (спустя 10 дней)

Топик был перенесен из форума Новинки (HD|DVD|BD|TV|SAT|PDTV| - Rips) в форум Зарубежные полнометражные мультфильмы

oliks
 

Буська

Лоцман

Пост 31-Дек-2011 19:09 (спустя 1 месяц 4 дня)

[Q] 

большущие сыпасиба
[Профиль]  [ЛС] 

berezeca

Корсар

Пост 14-Янв-2012 11:46 (спустя 13 дней)

[Q] 

спасибо
[Профиль]  [ЛС] 

CHARLI2236

1090

Пост 30-Окт-2012 12:56 (спустя 9 месяцев 16 дней)

[Q] 

спс

_________________
[Профиль]  [ЛС] 

shalonina

Гроза морей

Пост 26-Авг-2014 17:30 (спустя 1 год 9 месяцев)

[Q] 

помогу с раздачей.....................................................

_________________
[Профиль]  [ЛС] 
Показать сообщения:    
Ответить на тему

Текущее время: Сегодня 12:12

Часовой пояс: GMT + 4



Вы не можете начинать темы
Вы не можете отвечать на сообщения
Вы не можете редактировать свои сообщения
Вы не можете удалять свои сообщения
Вы не можете голосовать в опросах
Вы не можете прикреплять файлы к сообщениям
Вы не можете скачивать файлы

▼ Вниз