ML
     
  Уважаемый Гость!
Вы можете поддержать проект и зарегистрироваться у наших партнеров - онлайн-стратегия MyLands. При регистрации в игре Вы получите код, который сможете активировать после регистрации на pirat.ca и получить 1000 дублонов.

Ваш код:
db0e0ad91548759ffeb9bb88bed405e1a4b3c165
 
     

Динотопия: В поисках солнечного рубина (Дэвис Дой / Davis Doi) [2005 г., мультфильм, фэнтези, комедия, приключения, семейный, DVDRip] (Dub)

Ответить на тему
 
Автор
Сообщение

Пост 05-Ноя-2011 19:20

[Q] 

RuslanPL

Корсар

Динотопия: В поисках солнечного рубина
Год выпуска: 2005
Мировая премьера: 17 мая 2005
Дата выхода DVD: 26 ноября 2008
Производство: США
Жанр: мультфильм, фэнтези, комедия, приключения, семейный
Продолжительность: 01:12:07
Перевод: Профессиональный, полное дублирование
Режиссер: Дэвис Дой / Davis Doi
В ролях: Алисса Милано, Джейми Кеннеди, Кэти Гриффин, Уэйн Найт, Майкл Кларк Дункан, Малкольм МакДауэлл, Джордж Сигал, Дидрих Бадер, Тара Стронг, Грегг Бергер
Описание: Двенадцатилетний мальчик-сирота Кикс прячется в спасательной шлюпке отплывающего корабля, надеясь повидать мир. Во время ужасного шторма шлюпку смывает в море и Кикс оказываетсяна острове Динотопия, где люди и динозавры живут вместе. Его другом стал молодой веселый динозавр с необычным именем 26.
Но острову внезапно стала угрожать опасность, когда злой Огтар освободился из каменной тюрьмы и завладел таящим магическую темную силу Солнечным рубином. Кика, динозавр 26 и их друзья должны спасти их волшебный дом — Динотопию…
IMDB, КиноПоиск
Источник/Качество: DVDRip
Формат: AVI
Видео кодек: XviD
Аудио кодек: AC3
Видео: 688x528 (1.30:1), 25 fps, XviD build 50 ~2397 kbps avg, 0.26 bit/pixel
Аудио: 48 kHz, AC3 Dolby Digital, 2/0 (L,R) ch, ~192.00 kbps avg
Субтитры: нет
Format : AVI
Format/Info : Audio Video Interleave
File size : 1.31 GiB
Duration : 1h 12mn
Overall bit rate : 2 599 Kbps
Writing application : VirtualDubMod 1.5.10.3
Writing library : VirtualDubMod build 2550/release
Video #0
ID : 0
Format : MPEG-4 Visual
Format profile : [email protected]
Format settings, BVOP : Yes
Format settings, QPel : No
Format settings, GMC : No warppoints
Format settings, Matrix : Default (MPEG)
Codec ID : XVID
Codec ID/Hint : XviD
Duration : 1h 12mn
Bit rate : 2 398 Kbps
Width : 688 pixels
Height : 528 pixels
Display aspect ratio : 4:3
Frame rate : 25.000 fps
Resolution : 24 bits
Colorimetry : 4:2:0
Scan type : Progressive
Bits/(Pixel*Frame) : 0.264
Stream size : 1.21 GiB (92%)
Writing library : XviD 1.2.1 (UTC 2008-12-04)
Audio #1
ID : 1
Format : AC-3
Format/Info : Audio Coding 3
Codec ID : 2000
Duration : 1h 12mn
Bit rate mode : Constant
Bit rate : 192 Kbps
Channel(s) : 2 channels
Channel positions : L R
Sampling rate : 48.0 KHz
Stream size : 99.1 MiB (7%)
Alignment : Split accross interleaves
Interleave, duration : 40 ms (1.00 video frame)
Interleave, preload duration : 500 ms



Download / Скачать

Хотите скачать бесплатно? Зарегистрируйтесь на сайте (ссылка на регистрацию). Pirat.ca - самый быстрый торрент трекер в рунете!

Как скачивать  ·   Что такое торрент  ·   Рейтинг и ограничения



Последний раз редактировалось: RuslanPL (2011-11-07 17:44), всего редактировалось 3 раз(а)

Пост 05-Ноя-2011 21:34 (спустя 2 часа 14 минут)

Топик был перенесен из форума Мультипликация в форум Зарубежные полнометражные мультфильмы

Sirota
 

ara1205

69744

Пост 04-Мар-2012 09:20 (спустя 3 месяца 28 дней)

[Q] 

[Профиль]  [ЛС] 

CHARLI2236

1098

Пост 12-Мар-2014 23:15 (спустя 2 года)

[Q] 

подключусь AntiZip 03

_________________
[Профиль]  [ЛС] 
Показать сообщения:    
Ответить на тему

Текущее время: Сегодня 08:10

Часовой пояс: GMT + 4



Вы не можете начинать темы
Вы не можете отвечать на сообщения
Вы не можете редактировать свои сообщения
Вы не можете удалять свои сообщения
Вы не можете голосовать в опросах
Вы не можете прикреплять файлы к сообщениям
Вы не можете скачивать файлы

▼ Вниз