ML
     
  Уважаемый Гость!
Вы можете поддержать проект и зарегистрироваться у наших партнеров - онлайн-стратегия MyLands. При регистрации в игре Вы получите код, который сможете активировать после регистрации на pirat.ca и получить 1000 дублонов.

Ваш код:
5f4e94775bc0501caff7b254e79328d304c817d9
 
     

Халк против Росомахи / Hulk Vs. Wolverine (Сэм Лью, Фрэнк Пор / Sam Liu, Frank Paur) [2009 г., Мультфильм, Короткометражка, Фантастика, Боевик] (DVO)

Ответить на тему
 
Автор
Сообщение

Пост 05-Ноя-2011 23:28

[Q] 

Ksandr

Флибустьер

Халк против Росомахи / Hulk Vs. Wolverine
Год выпуска: 2009
Мировая премьера: 27 января 2009
Дата выхода DVD: 15 апреля 2010
Производство: США
Жанр: Мультфильм, Короткометражка, Фантастика, Боевик
Продолжительность: 00:37:02
Перевод: Профессиональный (двухголосый, закадровый)
Режиссер: Сэм Лью, Фрэнк Пор / Sam Liu, Frank Paur
В ролях: Марк Эчесон, Майкл Адамуэйт, Стивен Блум, Джей Бразо, Грей ДеЛайл, Qayam Devji, Пол Добсон, Брайан Драммонд, Джонатан Холмс, Janyse Jaud
Описание: Этот короткометражный мультфильм от компании Marvel и Lionsgate, в который рассказывается о новых похождениях невероятного Халка. В этот раз он сразится с Росомахи
Источник/Качество: BDRip
Формат: AVI
Видео кодек: XviD
Аудио кодек: MP3
Видео: 704x400, ~2186 kbps, 23,976 fps
Аудио: 2ch, 256 kbps, 48,0 КГц
Общее
Полное имя : Hulk Vs. Wolverine[pirat.ca].avi
Формат : AVI
Формат/Информация : Audio Video Interleave
Размер файла : 649 Мбайт
Продолжительность : 37 м.
Общий поток : 2451 Кбит/сек
Программа кодирования : VirtualDubModRus 1.5.10.2 (build 2542/release)
Библиотека кодирования : VirtualDubMod build 2542/release
Видео
Идентификатор : 0
Формат : MPEG-4 Visual
Профиль формата : Advanced [email protected]
Параметр BVOP формата : 2
Параметр QPel формата : Нет
Параметр GMC формата : Без точки перехода
Параметр матрицы формата : Default (MPEG)
Режим смешивания : Сжатый битовый поток
Идентификатор кодека : XVID
Идентификатор кодека/Подсказка : XviD
Продолжительность : 37 м.
Битрейт : 2186 Кбит/сек
Ширина : 704 пикселя
Высота : 400 пикселей
Соотношение сторон : 16:9
Частота кадров : 23,976 кадра/сек
Цветовое пространство : YUV
Субдискретизация насыщенности : 4:2:0
Битовая глубина : 8 бит
Тип развёртки : Прогрессивная
Метод сжатия : С потерями
Бит/(Пиксели*Кадры) : 0.324
Размер потока : 579 Мбайт (89%)
Библиотека кодирования : XviD 1.2.1 (UTC 2008-12-04)
Аудио
Идентификатор : 1
Формат : MPEG Audio
Версия формата : Version 1
Профиль формата : Layer 3
Режим : Joint stereo
Идентификатор кодека : 55
Идентификатор кодека/Подсказка : MP3
Продолжительность : 37 м.
Вид битрейта : Постоянный
Битрейт : 256 Кбит/сек
Каналы : 2 канала
Частота : 48,0 КГц
Метод сжатия : С потерями
Размер потока : 67,8 Мбайт (10%)
Выравнивание : Разделение по промежуткам
Продолжительность промежутка : 42 мс. (1,00 видеокадр)
Время предзагрузки промежутка : 500 мс.
Библиотека кодирования : LAME3.98.2


Download / Скачать

Хотите скачать бесплатно? Зарегистрируйтесь на сайте (ссылка на регистрацию). Pirat.ca - самый быстрый торрент трекер в рунете!

Как скачивать  ·   Что такое торрент  ·   Рейтинг и ограничения



Последний раз редактировалось: Ksandr (2011-11-06 20:38), всего редактировалось 6 раз(а)

Пост 06-Ноя-2011 21:09 (спустя 21 час)

Топик был перенесен из форума Мультипликация в форум Зарубежные полнометражные мультфильмы

zyyx
 

bel1

Корсар

Пост 27-Июл-2013 13:39 (спустя 1 год 8 месяцев)

[Q] 

[Профиль]  [ЛС] 

manu

Пост 14-Ноя-2013 19:15 (спустя 3 месяца 18 дней)

[Q] 

Постою на раздаче. Хто... Вы лучшие!
[Профиль]  [ЛС] 
Показать сообщения:    
Ответить на тему

Текущее время: Сегодня 15:37

Часовой пояс: GMT + 4



Вы не можете начинать темы
Вы не можете отвечать на сообщения
Вы не можете редактировать свои сообщения
Вы не можете удалять свои сообщения
Вы не можете голосовать в опросах
Вы не можете прикреплять файлы к сообщениям
Вы не можете скачивать файлы

▼ Вниз