ML
     
  Уважаемый Гость!
Вы можете поддержать проект и зарегистрироваться у наших партнеров - онлайн-стратегия MyLands. При регистрации в игре Вы получите код, который сможете активировать после регистрации на pirat.ca и получить 1000 дублонов.

Ваш код:
a978488e62322cd72e113ab723b8a7fdc10eb9b9
 
     

Бэтмен и Мистер Фриз / Batman & Mr. Freeze: SubZero (Бойд Керклэнд / Boyd Kirkland) [1998 г., Мультфильм, Фантастика, Боевик, Триллер, Драма, Криминал, DVDRip] (Dub)

Ответить на тему
 
Автор
Сообщение

Пост 08-Ноя-2011 01:19

[Q] 

Ksandr

Флибустьер

Бэтмен и Мистер Фриз / Batman & Mr. Freeze: SubZero
Год выпуска: 1998
Мировая премьера: 11 февраля 1998
Производство: США
Жанр: Мультфильм, Фантастика, Боевик, Триллер, Драма, Криминал
Продолжительность: 01:06:33
Перевод: Профессиональный (полное дублирование)
Режиссер: Бойд Керклэнд / Boyd Kirkland
В ролях: Кевин Конрой, Майкл Ансара, Лорен Лестер, Ефрем Цимбалист мл., Джордж Зунза, Роберт Костанцо, Боб Хатингс, Мэри Кэй Бергман, Мэрилу Хеннер, Дин Джонс
Описание: Новое несчастье постигло Готэм Сити и семейство Летучих Мышей: Мистер Фриз вернулся, чтобы похитить Бэтгерл. Бэтмэн и Робин выясняют леденящие кровь подробности плана хладнокровного — во всех смыслах — преступника. Они должны успеть спасти крылатую подругу, прежде чем ее охватить смертный холод.
Но девочка — Летучая Мышь может постоять за себя сама. На этот раз головокружительные приключения Бэтмэна — рисованные. Возможности анимации безграничны. мороз по коже и накал страстей гарантированы!
Источник/Качество: DVDRip
Формат: AVI
Видео кодек: XviD
Аудио кодек: MP3
Видео: 640x480, ~2398 kbps, 23,976 fps
Аудио: 2ch, 128 kbps, 48,0 КГц
Общее
Полное имя : SubZero[pirat.ca].avi
Формат : AVI
Формат/Информация : Audio Video Interleave
Размер файла : 1,18 Гбайт
Продолжительность : 1 ч. 6 м.
Общий поток : 2535 Кбит/сек
Программа кодирования : VirtualDubModRus 1.5.10.2 (build 2542/release)
Библиотека кодирования : VirtualDubMod build 2542/release
Видео
Идентификатор : 0
Формат : MPEG-4 Visual
Профиль формата : Advanced [email protected]
Параметр BVOP формата : 1
Параметр QPel формата : Нет
Параметр GMC формата : Без точки перехода
Параметр матрицы формата : Default (MPEG)
Идентификатор кодека : XVID
Идентификатор кодека/Подсказка : XviD
Продолжительность : 1 ч. 6 м.
Битрейт : 2398 Кбит/сек
Ширина : 640 пикселей
Высота : 480 пикселей
Соотношение сторон : 4:3
Частота кадров : 23,976 кадра/сек
Цветовое пространство : YUV
Субдискретизация насыщенности : 4:2:0
Битовая глубина : 8 бит
Тип развёртки : Прогрессивная
Метод сжатия : С потерями
Бит/(Пиксели*Кадры) : 0.326
Размер потока : 1,11 Гбайт (95%)
Библиотека кодирования : XviD 1.2.1 (UTC 2008-12-04)
Аудио
Идентификатор : 1
Формат : MPEG Audio
Версия формата : Version 1
Профиль формата : Layer 3
Режим : Joint stereo
Расширение режима : MS Stereo
Идентификатор кодека : 55
Идентификатор кодека/Подсказка : MP3
Продолжительность : 1 ч. 6 м.
Вид битрейта : Постоянный
Битрейт : 128 Кбит/сек
Каналы : 2 канала
Частота : 48,0 КГц
Метод сжатия : С потерями
Размер потока : 60,9 Мбайт (5%)
Выравнивание : Разделение по промежуткам
Продолжительность промежутка : 42 мс. (1,00 видеокадр)
Время предзагрузки промежутка : 500 мс.


Download / Скачать

Хотите скачать бесплатно? Зарегистрируйтесь на сайте (ссылка на регистрацию). Pirat.ca - самый быстрый торрент трекер в рунете!

Как скачивать  ·   Что такое торрент  ·   Рейтинг и ограничения



Последний раз редактировалось: Ksandr (2011-11-12 21:53), всего редактировалось 1 раз

Пост 08-Ноя-2011 01:44 (спустя 24 минуты)

Топик был перенесен из форума Мультипликация в форум Зарубежные полнометражные мультфильмы

zyyx
 

Sanji Kock

Морской Волк

3

Пост 18-Фев-2012 01:03 (спустя 3 месяца 9 дней)

[Q] 

Забираю для коллекции)

_________________
Называйте меня Mr.Fox. Лисы захватят этот прекрасный мир и сделают его одной большой норой....
[Профиль]  [ЛС] 
Показать сообщения:    
Ответить на тему

Текущее время: Сегодня 22:04

Часовой пояс: GMT + 4



Вы не можете начинать темы
Вы не можете отвечать на сообщения
Вы не можете редактировать свои сообщения
Вы не можете удалять свои сообщения
Вы не можете голосовать в опросах
Вы не можете прикреплять файлы к сообщениям
Вы не можете скачивать файлы

▼ Вниз