ML
     
  Уважаемый Гость!
Вы можете поддержать проект и зарегистрироваться у наших партнеров - онлайн-стратегия MyLands. При регистрации в игре Вы получите код, который сможете активировать после регистрации на pirat.ca и получить 1000 дублонов.

Ваш код:
0fcd44bd35319f69313aa6e53b31c51cbff1c942
 
     

Бэтмен против Дракулы / The Batman vs Dracula: The Animated Movie (Майкл Гогуэн, Сын Юнь Ким, Сэм Лью / Michael Goguen, Seung Eun Kim, Sam Liu) [2005 г., Мультфильм, Ужасы, Боевик, Триллер, DVDRip] (Dub)

Ответить на тему
 
Автор
Сообщение

Пост 08-Ноя-2011 01:38

[Q] 

Ksandr

Флибустьер

Бэтмен против Дракулы / The Batman vs Dracula: The Animated Movie
Год выпуска: 2005
Мировая премьера: 18 октября 2005
Дата выхода DVD: 7 апреля 2011
Производство: США
Жанр: Мультфильм, Ужасы, Боевик, Триллер
Продолжительность: 01:19:56
Перевод: Профессиональный (полное дублирование)
Режиссер: Майкл Гогуэн, Сын Юнь Ким, Сэм Лью / Michael Goguen, Seung Eun Kim, Sam Liu
В ролях: Джефф Беннетт, Нил Дункан, Ричард Грин, Том Кенни, Кевин Майкл Ричардсон, Рино Романо, Нил Росс, Джеймс Си, Петер Стормаре, Тара Стронг
Описание: В то время как Готэм Сити спит под прикрытием темноты, вылетают две легендарные мыши. Одна из них превращает город в армию вампиров, а другая пытается сделать все возможное, чтобы предотвратить это событие.
Но Дракула — зто не просто один из врагов Бэтмена, он обладает сверхъестественными способностями, скоростью и умом. Хотя даже со своим арсеналом технических приспособлений, Черный Рыцарь смертен.
Источник/Качество: DVDRip
Формат: AVI
Видео кодек: XviD
Аудио кодек: MP3
Видео: 720x528, ~1851 kbps, 25,000 fps
Аудио: 2ch, 128 kbps, 48,0 КГц
Общее
Полное имя : The Batman vs Dracula The Animated Movie[pirat.ca].avi
Формат : AVI
Формат/Информация : Audio Video Interleave
Размер файла : 1,11 Гбайт
Продолжительность : 1 ч. 19 м.
Общий поток : 1988 Кбит/сек
Программа кодирования : VirtualDubModRus 1.5.10.2 (build 2542/release)
Библиотека кодирования : VirtualDubMod build 2542/release
Видео
Идентификатор : 0
Формат : MPEG-4 Visual
Профиль формата : Advanced [email protected]
Параметр BVOP формата : Нет
Параметр QPel формата : Нет
Параметр GMC формата : Без точки перехода
Параметр матрицы формата : Выборочная
Идентификатор кодека : XVID
Идентификатор кодека/Подсказка : XviD
Продолжительность : 1 ч. 19 м.
Битрейт : 1851 Кбит/сек
Ширина : 720 пикселей
Высота : 528 пикселей
Соотношение сторон : 4:3
Частота кадров : 25,000 кадров/сек
Цветовое пространство : YUV
Субдискретизация насыщенности : 4:2:0
Битовая глубина : 8 бит
Тип развёртки : Прогрессивная
Метод сжатия : С потерями
Бит/(Пиксели*Кадры) : 0.195
Размер потока : 1,03 Гбайт (93%)
Библиотека кодирования : XviD 1.2.1 (UTC 2008-12-04)
Аудио
Идентификатор : 1
Формат : MPEG Audio
Версия формата : Version 1
Профиль формата : Layer 3
Режим : Joint stereo
Расширение режима : MS Stereo
Идентификатор кодека : 55
Идентификатор кодека/Подсказка : MP3
Продолжительность : 1 ч. 19 м.
Вид битрейта : Постоянный
Битрейт : 128 Кбит/сек
Каналы : 2 канала
Частота : 48,0 КГц
Метод сжатия : С потерями
Размер потока : 73,2 Мбайт (6%)
Выравнивание : Разделение по промежуткам
Продолжительность промежутка : 40 мс. (1,00 видеокадр)
Время предзагрузки промежутка : 500 мс.
Библиотека кодирования : LAME3.98.2
Язык : Russian


Download / Скачать

Хотите скачать бесплатно? Зарегистрируйтесь на сайте (ссылка на регистрацию). Pirat.ca - самый быстрый торрент трекер в рунете!

Как скачивать  ·   Что такое торрент  ·   Рейтинг и ограничения

Пост 08-Ноя-2011 01:46 (спустя 8 минут)

Топик был перенесен из форума Мультипликация в форум Зарубежные полнометражные мультфильмы

Sirota
 

Sanji Kock

Морской Волк

3

Пост 18-Фев-2012 01:04 (спустя 3 месяца 9 дней)

[Q] 

Заценим, спасибо)

_________________
Называйте меня Mr.Fox. Лисы захватят этот прекрасный мир и сделают его одной большой норой....
[Профиль]  [ЛС] 

kelto

Шкипер

Пост 03-Июн-2012 01:23 (спустя 3 месяца 14 дней)

[Q] 

Правим по ветру
[Профиль]  [ЛС] 

SHKET_DANCE

Штурман

Пост 07-Янв-2013 14:47 (спустя 7 месяцев 4 дня)

[Q] 

[Профиль]  [ЛС] 

manu

Пост 14-Ноя-2013 19:12 (спустя 10 месяцев 7 дней)

[Q] 

Постою на раздаче. AntiZip Спасибо!!!
[Профиль]  [ЛС] 
Показать сообщения:    
Ответить на тему

Текущее время: Сегодня 02:13

Часовой пояс: GMT + 4



Вы не можете начинать темы
Вы не можете отвечать на сообщения
Вы не можете редактировать свои сообщения
Вы не можете удалять свои сообщения
Вы не можете голосовать в опросах
Вы не можете прикреплять файлы к сообщениям
Вы не можете скачивать файлы

▼ Вниз