ML
     
  Уважаемый Гость!
Вы можете поддержать проект и зарегистрироваться у наших партнеров - онлайн-стратегия MyLands. При регистрации в игре Вы получите код, который сможете активировать после регистрации на pirat.ca и получить 1000 дублонов.

Ваш код:
ea554e7ed3eacceeae87a8b30a9de3f086c18a84
 
     

Король лев: Трилогия (Роджер Аллерс, Роб Минкофф / Roger Allers, Rob Minkoff) [1994 г., мультфильм, комедия, приключения, DVDRip] (Dub)

Ответить на тему
 
Автор
Сообщение

Пост 09-Ноя-2011 00:27

[Q] 

erchine

Король лев: Трилогия / The Lion King. Trilogy
Производство: США
Жанр: мультфильм, комедия, приключения
Описание:
Король Лев: У величественного Короля-Льва Муфасы рождается наследник по имени Симба. Уже в детстве любознательный малыш становится жертвой интриг своего завистливого дяди Шрама, мечтающего о власти. Симба познаёт горе утраты, предательство и изгнание, но в конце концов обретает верных друзей и находит любимую. Закалённый испытаниями, он в нелёгкой борьбе отвоёвывает своё законное место в «Круге жизни», осознав, что значит быть настоящим Королём.
Король Лев 2. Гордость Симбы: Много времени утекло с тех пор, как лев Симба сверг своего злого дядю Шрама и вернул трон короля саванны. У него и королевы Налы уже подрастает дочь — принцесса Киара. Однако порученная легкомысленным заботам наших старых знакомых Тимона и Пумбы, проказливая и непослушная Киара пока никак не похожа на будущую королеву. Однажды сбежав в Запретную Землю, она встречает там львенка Кову, который становится ее лучшим другом. Да только принцесса не знает, что эта дружба может стоить ей короны! Кову — наследник Шрама, и пусть он не пошел в старого интригана, его мать Зира спит и видит, как бы усадить сына на трон. И чем прочнее дружба между Киарой и Кову, тем гуще тучи над племенем Симбы…
Король Лев 3. Хакуна Матата: Главными героями мультфильма станут всеобщие любимцы Тимон и Пумба! Вы узнаете об этих закадычных друзьях много нового, например, о том, как они впервые встретились, что за потрясающие приключения вместе прожили и на какие удивительные подвиги их сподвигло знаменитое знакомство с будущем королем саванны Симбой.
А также познакомитесь с новыми забавными героями, которые точно не дадут вам скучать — заботливой мамочкой Тимона и его ужасно саркастичным дядей Максом! Скучно не будет!
Год выпуска: 1994
Мировая премьера: 15 июня 1994
Продолжительность: 1:25:16
Перевод: Профессиональный (полное дублирование)
Режиссер: Роджер Аллерс, Роб Минкофф / Roger Allers, Rob Minkoff
В ролях: Джереми Айронс, Мэттью Бродерик, Натан Лейн, Эрни Сабелла, Джеймс Эрл Джонс, Мойра Келли, Роуэн Эткинсон, Вупи Голдберг, Чич Марин, Джонатан Тейлор Томас
Описание: У величественного Короля-Льва Муфасы рождается наследник по имени Симба. Уже в детстве любознательный малыш становится жертвой интриг своего завистливого дяди Шрама, мечтающего о власти. Симба познаёт горе утраты, предательство и изгнание, но в конце концов обретает верных друзей и находит любимую. Закалённый испытаниями, он в нелёгкой борьбе отвоёвывает своё законное место в «Круге жизни», осознав, что значит быть настоящим Королём.
IMDB
Источник/Качество: DVDRip
Формат: AVI
Видео: Xvid 704x416, 25.00fps, 1905 Kbps
Аудио: Dolby AC3 48000Hz 6ch 384kbps
General
Complete name : D:\Korol.lev.Trilogiya.1994-2004.XviD.DVDRip\Korolj.lev.1.avi
Format : AVI
Format/Info : Audio Video Interleave
File size : 1.37 GiB
Duration : 1h 25mn
Overall bit rate : 2 296 Kbps
Writing application : VirtualDubMod 1.5.4.1 (build 2178/release)
Writing library : VirtualDubMod build 2178/release
Video
ID : 0
Format : MPEG-4 Visual
Format profile : Advanced [email protected]
Format settings, BVOP : 1
Format settings, QPel : No
Format settings, GMC : No warppoints
Format settings, Matrix : Custom
Codec ID : XVID
Codec ID/Hint : XviD
Duration : 1h 25mn
Bit rate : 1 905 Kbps
Width : 704 pixels
Height : 416 pixels
Display aspect ratio : 1.692
Frame rate : 25.000 fps
Color space : YUV
Chroma subsampling : 4:2:0
Bit depth : 8 bits
Scan type : Progressive
Compression mode : Lossy
Bits/(Pixel*Frame) : 0.260
Stream size : 1.13 GiB (83%)
Writing library : XviD 1.2.0.dev47 (UTC 2006-11-01)
Audio
ID : 1
Format : AC-3
Format/Info : Audio Coding 3
Mode extension : CM (complete main)
Codec ID : 2000
Duration : 1h 25mn
Bit rate mode : Constant
Bit rate : 384 Kbps
Channel(s) : 6 channels
Channel positions : Front: L C R, Side: L R, LFE
Sampling rate : 48.0 KHz
Bit depth : 16 bits
Compression mode : Lossy
Stream size : 234 MiB (17%)
Alignment : Split accross interleaves
Interleave, duration : 96 ms (2.40 video frames)
Interleave, preload duration : 96 ms
Language : Russian



Год выпуска: 1998
Мировая премьера: 27 октября 1998
Продолжительность: 1:17:43
Перевод: Профессиональный (полное дублирование)
Режиссер: Даррел Руни, Роб ЛаДука / Darrell Rooney, Rob LaDuca
В ролях: Мэтью Бродерик, Моира Келли, Майкл Хорн, Нив Кэмпбелл, Натан Лэйн, Эрни Сабелла, Раен О’Донахью, Джейсон Марсден, Сюзанн Плешет, Энди Дик, Лэйси Чэберт, Дженнифер Лейн
Описание: Много времени утекло с тех пор, как лев Симба сверг своего злого дядю Скара и вернул трон короля саванны. У него и королевы Налы уже подрастает дочь-принцесса Киара. Однако порученная легкомысленным заботам наших старых знакомых Тимона и Пумбы, проказливая и непослушная Киара пока никак не похожа на будущую королеву. Однажды сбежав в Запретную Землю, она встречает там львенка Кову, который становится ее лучшим другом. Да только принцесса не знает, что эта дружба может стоить ей короны! Кову - наследник Скара, и пусть он не пошел в старого интригана, его мать Зира спит и видит, как бы усадить сына на трон. И чем прочнее дружба между Киарой и Кову, тем гуще тучи над племенем Симбы...
IMDB
Источник/Качество: DVDRip
Формат: AVI
Видео: Xvid 704x432, 25.00fps, 2129 Kbps
Аудио: Dolby AC3 48000Hz 6ch 384kbps
General
Complete name : D:\Korol.lev.Trilogiya.1994-2004.XviD.DVDRip\Korolj.lev.2.avi
Format : AVI
Format/Info : Audio Video Interleave
File size : 1.37 GiB
Duration : 1h 17mn
Overall bit rate : 2 521 Kbps
Writing application : VirtualDubMod 1.5.10.1 Рус от Stvens Inc.™ www.stvens.amillo.net (build 2439/release)
Writing library : VirtualDubMod build 2439/release
Video
ID : 0
Format : MPEG-4 Visual
Format profile : Advanced [email protected]
Format settings, BVOP : No
Format settings, QPel : No
Format settings, GMC : No warppoints
Format settings, Matrix : Custom
Codec ID : XVID
Codec ID/Hint : XviD
Duration : 1h 17mn
Bit rate : 2 129 Kbps
Width : 704 pixels
Height : 432 pixels
Display aspect ratio : 1.630
Frame rate : 25.000 fps
Color space : YUV
Chroma subsampling : 4:2:0
Bit depth : 8 bits
Scan type : Progressive
Compression mode : Lossy
Bits/(Pixel*Frame) : 0.280
Stream size : 1.16 GiB (84%)
Writing library : XviD 1.2.0.dev47 (UTC 2006-11-01)
Audio
ID : 1
Format : AC-3
Format/Info : Audio Coding 3
Mode extension : CM (complete main)
Codec ID : 2000
Duration : 1h 17mn
Bit rate mode : Constant
Bit rate : 384 Kbps
Channel(s) : 6 channels
Channel positions : Front: L C R, Side: L R, LFE
Sampling rate : 48.0 KHz
Bit depth : 16 bits
Compression mode : Lossy
Stream size : 213 MiB (15%)
Alignment : Split accross interleaves
Interleave, duration : 40 ms (1.00 video frame)
Interleave, preload duration : 500 ms
Language : Russian / Russian



Год выпуска: 2004
Мировая премьера: 10 февраля 2004
Продолжительность: 1:13:09
Перевод: Профессиональный (полное дублирование)
Режиссер: Брэдли Рэймонд / Bradley Raymond
В ролях: Натан Лэйн, Эрни Сабелла, Джули Кавнер, Джерри Стиллер, Мэттью Бродерик, Роберт Гийом, Мойра Келли, Вупи Голдберг, Чич Марин, Джим Каммингс
Описание: Круг жизни никогда не повторится! Хакуна Матата! Войди снова в великий Круг Жизни! "Уолт Дисней" с радостью приглашает вас вернуться в мир своего легендарного мультфильма "Король Лев", и на этот раз главными героями станут всеобщие любимцы Тимон и Пумба! Вы узнаете об этих закадычных друзьях много нового, например, о том, как они впервые встретились, что за потрясающие приключения вместе пережили и на какие удивительные подвиги их сподвигло знаменитое знакомство с будущим королём саваны Симбой. А также познакомитесь с новыми забавными героями, которые точно не дадут вам скучать - заботливой мамочкой Тимона и его ужасно саркастичным дядей Максом! Скучно не будет!
IMDB
Источник/Качество: DVDRip
Формат: AVI
Видео: Xvid 704x416, 25.00fps, 2083 Kbps
Аудио: Dolby AC3 48000Hz 6ch 384kbps
General
Complete name : D:\Korol.lev.Trilogiya.1994-2004.XviD.DVDRip\Korolj.lev.3.avi
Format : AVI
Format/Info : Audio Video Interleave
File size : 1.26 GiB
Duration : 1h 13mn
Overall bit rate : 2 474 Kbps
Writing application : VirtualDubMod 1.5.4.1 (build 2178/release)
Writing library : VirtualDubMod build 2178/release
Video
ID : 0
Format : MPEG-4 Visual
Format profile : Advanced [email protected]
Format settings, BVOP : No
Format settings, QPel : No
Format settings, GMC : No warppoints
Format settings, Matrix : Custom
Codec ID : XVID
Codec ID/Hint : XviD
Duration : 1h 13mn
Bit rate : 2 083 Kbps
Width : 704 pixels
Height : 416 pixels
Display aspect ratio : 1.692
Frame rate : 25.000 fps
Color space : YUV
Chroma subsampling : 4:2:0
Bit depth : 8 bits
Scan type : Progressive
Compression mode : Lossy
Bits/(Pixel*Frame) : 0.285
Stream size : 1.06 GiB (84%)
Writing library : XviD 1.2.0.dev47 (UTC 2006-11-01)
Audio
ID : 1
Format : AC-3
Format/Info : Audio Coding 3
Mode extension : CM (complete main)
Codec ID : 2000
Duration : 1h 13mn
Bit rate mode : Constant
Bit rate : 384 Kbps
Channel(s) : 6 channels
Channel positions : Front: L C R, Side: L R, LFE
Sampling rate : 48.0 KHz
Bit depth : 16 bits
Compression mode : Lossy
Stream size : 201 MiB (16%)
Alignment : Split accross interleaves
Interleave, duration : 96 ms (2.40 video frames)
Interleave, preload duration : 96 ms
Language : Russian



Download / Скачать

Хотите скачать бесплатно? Зарегистрируйтесь на сайте (ссылка на регистрацию). Pirat.ca - самый быстрый торрент трекер в рунете!

Как скачивать  ·   Что такое торрент  ·   Рейтинг и ограничения

Пост 09-Ноя-2011 01:04 (спустя 36 минут)

Топик был перенесен из форума Мультипликация в форум Зарубежные полнометражные мультфильмы

CaptRom
 

Oleksiy85

Шкипер

Пост 13-Фев-2012 21:26 (спустя 3 месяца 4 дня)

[Q] 

Спасибо , только скорости дайте
[Профиль]  [ЛС] 

Reanimate

Шкипер

Пост 24-Фев-2012 11:01 (спустя 10 дней)

[Q] 


_________________
Блюю я как-то в центре Москвы...
[Профиль]  [ЛС] 

pro100userspb

Корсар

Пост 05-Мар-2012 19:13 (спустя 10 дней)

[Q] 


_________________
[Профиль]  [ЛС] 

E-RTY

Флибустьер

30

Пост 18-Мар-2012 01:10 (спустя 12 дней)

[Q] 

Самий лучший мульт!!!
[Профиль]  [ЛС] 

Smulya

Морской Волк

80

Пост 24-Мар-2012 01:08 (спустя 5 дней)

[Q] 


_________________
[Профиль]  [ЛС] 

bobon78

Шкипер

Пост 26-Мар-2012 16:45 (спустя 2 дня 15 часов)

[Q] 

[Профиль]  [ЛС] 

rezjus

Корсар

Пост 29-Мар-2012 19:20 (спустя 3 дня)

[Q] 

Спасибо. Оценка: пять баллов.
[Профиль]  [ЛС] 

tu6enka

Флибустьер

Пост 05-Май-2012 19:46 (спустя 1 месяц 7 дней)

[Q] 

Огромное
[Профиль]  [ЛС] 

Анна Каштаева

Шкипер

Пост 21-Май-2012 16:45 (спустя 15 дней)

[Q] 

[Профиль]  [ЛС] 

iuotkach

Морской Волк

Пост 05-Июн-2012 08:34 (спустя 14 дней)

[Q] 

[Профиль]  [ЛС] 

bullet888

Штурман

3

Пост 13-Июл-2012 20:29 (спустя 1 месяц 8 дней)

[Q] 

Отличный мульт !!!
[Профиль]  [ЛС] 

Alina23

Пост 06-Авг-2012 09:34 (спустя 23 дня)

[Q] 

сынишка просто в восторге!! благодарим.
[Профиль]  [ЛС] 

король мерлин

Шкипер

Пост 19-Дек-2012 22:42 (спустя 4 месяца 13 дней)

[Q] 


_________________
Держи порох сухим, а шпагу острой!
[Профиль]  [ЛС] 

xdgx

Флибустьер

Пост 02-Янв-2013 11:48 (спустя 13 дней)

[Q] 

[Профиль]  [ЛС] 

Zha-pol

Легенда

Пост 14-Янв-2013 10:22 (спустя 11 дней)

[Q] 


_________________
[Профиль]  [ЛС] 

fanar

15

Пост 26-Янв-2013 20:03 (спустя 12 дней)

[Q] 

спасибо
[Профиль]  [ЛС] 

ku6opr

Морской Волк

184

Пост 03-Май-2013 18:14 (спустя 3 месяца 7 дней)

[Q] 


_________________
[Профиль]  [ЛС] 

Bile

4188

Пост 16-Май-2013 01:08 (спустя 12 дней)

[Q] 

Очень хороший, добрый мультик.Жаль , что пендосы больше не рисуют такие.
[Профиль]  [ЛС] 

Вут

Морской Волк

72

Пост 19-Июн-2013 14:14 (спустя 1 месяц 3 дня)

[Q] 

[Профиль]  [ЛС] 

black kat

Лоцман

Пост 08-Июл-2013 13:08 (спустя 18 дней)

[Q] 

СПАСИБО!!!!!!!!!!!!!!!
[Профиль]  [ЛС] 

Bozo

Флибустьер

Пост 07-Янв-2014 18:55 (спустя 5 месяцев 30 дней)

[Q] 

спасибо за трилогию )
[Профиль]  [ЛС] 

stas-burn

Корсар

Пост 12-Мар-2014 13:34 (спустя 2 месяца 4 дня)

[Q] 

Спасибо!!! Супер!
[Профиль]  [ЛС] 

cop76

Шкипер

Пост 11-Май-2014 12:48 (спустя 1 месяц 29 дней)

[Q] 

Спасибо. Дети засматриваются.

_________________
[Профиль]  [ЛС] 
Показать сообщения:    
Ответить на тему

Текущее время: Сегодня 12:13

Часовой пояс: GMT + 4



Вы не можете начинать темы
Вы не можете отвечать на сообщения
Вы не можете редактировать свои сообщения
Вы не можете удалять свои сообщения
Вы не можете голосовать в опросах
Вы не можете прикреплять файлы к сообщениям
Вы не можете скачивать файлы

▼ Вниз