ML
     
  Уважаемый Гость!
Вы можете поддержать проект и зарегистрироваться у наших партнеров - онлайн-стратегия MyLands. При регистрации в игре Вы получите код, который сможете активировать после регистрации на pirat.ca и получить 1000 дублонов.

Ваш код:
4fbd9898b6f10799a3e8edf60f31febd2bc15453
 
     

Морская бригада / SeaFood (Аун Хое Го / Aun Hoe Goh) [2011 г., мультфильм, DVDRip] (Dub)

Ответить на тему
 
Автор
Сообщение

Пост 09-Ноя-2011 23:33

[Q] 

zyyx

--Морская бригада / SeaFood
«За жабры ответишь!»
-- Год выпуска: 2011
Мировая премьера: 7 октября 2011
Российская премьера: 20 октября 2011, «Каропрокат»
Дата выхода DVD: 20 ноября 2011, «Мистерия Звука»
Производство: Малайзия
Жанр: мультфильм
Продолжительность: 01:28:23
Перевод: Профессиональный (полное дублирование) [Лицензия]
Режиссер: Аун Хое Го / Aun Hoe Goh
Описание: Две бамбуковые акулы — Пап и Джулиус — покидают свой родной риф и отправляются в рискованное и увлекательное приключение к берегам континента с целью спасти своих собратьев от распоясавшихся браконьеров.-IMDB | КиноПоиск-Источник/Качество: DVDRip
Формат: AVI
Видео кодек: XviD
Аудио кодек: MP3
Видео: 624x352 (1.77:1), 25 fps, XviD MPEG-4, 972 kbps avg, 0.18 bit/pixel
Аудио: 48 kHz, MPEG Layer 3, 2 ch, 128.00 kbps avg
Общее
Полное имя : F:\pirat.ca\Morskaja.brigada.2011.D.DVDRip.700MB.avi
Формат : AVI
Формат/Информация : Audio Video Interleave
Размер файла : 702 Мбайт
Продолжительность : 1 ч. 28 м.
Общий поток : 1110 Кбит/сек
Программа кодирования : VirtualDubMod 1.5.4.1 (build 2178/release)
Библиотека кодирования : VirtualDubMod build 2178/release
Видео
Идентификатор : 0
Формат : MPEG-4 Visual
Профиль формата : Advanced [email protected]
Параметр BVOP формата : 2
Параметр QPel формата : Нет
Параметр GMC формата : Без точки перехода
Параметр матрицы формата : Выборочная
Идентификатор кодека : XVID
Идентификатор кодека/Подсказка : XviD
Продолжительность : 1 ч. 28 м.
Битрейт : 972 Кбит/сек
Ширина : 624 пикселя
Высота : 352 пикселя
Соотношение сторон : 16:9
Частота кадров : 25,000 кадров/сек
Цветовое пространство : YUV
Субдискретизация насыщенности : 4:2:0
Битовая глубина : 8 бит
Тип развёртки : Прогрессивная
Метод сжатия : С потерями
Бит/(Пиксели*Кадры) : 0.177
Размер потока : 615 Мбайт (88%)
Библиотека кодирования : XviD 58
Аудио
Идентификатор : 1
Формат : MPEG Audio
Версия формата : Version 1
Профиль формата : Layer 3
Идентификатор кодека : 55
Идентификатор кодека/Подсказка : MP3
Продолжительность : 1 ч. 28 м.
Вид битрейта : Постоянный
Битрейт : 128 Кбит/сек
Каналы : 2 канала
Частота : 48,0 КГц
Метод сжатия : С потерями
Размер потока : 80,9 Мбайт (12%)
Выравнивание : Соединение по промежуткам
Продолжительность промежутка : 40 мс. (1,00 видеокадр)
Время предзагрузки промежутка : 504 мс.
Библиотека кодирования : LAME3.98r
Настройки программы : -m s -V 4 -q 7 -lowpass 17 -b 128


Download / Скачать

Хотите скачать бесплатно? Зарегистрируйтесь на сайте (ссылка на регистрацию). Pirat.ca - самый быстрый торрент трекер в рунете!

Как скачивать  ·   Что такое торрент  ·   Рейтинг и ограничения

Пост 10-Ноя-2011 05:02 (спустя 5 часов)

Топик был перенесен из форума Мультипликация в форум Зарубежные полнометражные мультфильмы

CaptRom
 

Mac tac

Лоцман

Пост 10-Ноя-2011 10:33 (спустя 11 часов)

[Q] 

Спасибо
[Профиль]  [ЛС] 
Показать сообщения:    
Ответить на тему

Текущее время: Сегодня 19:57

Часовой пояс: GMT + 4



Вы не можете начинать темы
Вы не можете отвечать на сообщения
Вы не можете редактировать свои сообщения
Вы не можете удалять свои сообщения
Вы не можете голосовать в опросах
Вы не можете прикреплять файлы к сообщениям
Вы не можете скачивать файлы

▼ Вниз